Секретный эксперимент / The Banshee Chapter (Блэр Эриксон / Blair Erickson) [2013, Германия, США, ужасы, триллер, WEB-DLRip] VO

Ответить на тему
 

Suxrob89 ®

Стаж: 7 лет 1 месяц

Сообщений: 933

Симпатии: 564

-Секретный эксперимент / The Banshee Chapter-«Расширь своё создание»- Страна: Германия, США
Жанр: ужасы, триллер
Год выпуска: 2013
Продолжительность: 01:27:08
Перевод: Одноголосый закадровый
Субтитры: нет-Режиссер: Блэр Эриксон / Blair Erickson-В ролях: Катя Винтер, Тед Левайн, Майкл МакМиллиан, Моник Канделария, Чед Брамметт, Дженни Гэбриэлль, Дж.Д. Гарфилд, Алекс Джианопулос, Дэвид Мидфандер, Вивиан Несбитт, Бен Сэмюэлс, Сид Шульте-Описание: История расскажет о молодой журналистке, расследующей таинственное исчезновение своего друга, который был замешан в правительственном эксперименте.- -Сценарий: Блэр Эриксон / Blair Erickson, Дэниэл Дж. Хили / Daniel J. Healy
Продюсер: Шон Эйкерс / Sean Akers, Кори Мооса / Corey Moosa, Стефани Риггз / Stephanie Riggs, Бен Сэмюэлс / Ben Samuels, Маркус Шофер / Marcus Schöfer
Оператор: Джереми Обертон / Jeremy Obertone
Композитор: Андреас Вайдингер / Andreas Weidinger
Мировая премьера: 22 августа 2013-Качество: WEB-DLRip
Контейнер: AVI
Видео: XviD, 720x400 (16:9), 1852 kbps, 23,976 fps, 0,268 bpp
Аудио: AC3 / 5.1 / 48 kHz / 384 kbps / 16 bit-

Media Info

General
Complete name : G:\Secretniy.experiment.2013.L1.HDRip_1400MB.avi
Format : AVI
Format/Info : Audio Video Interleave
File size : 1.37 GiB
Duration : 1h 27mn
Overall bit rate : 2 246 Kbps
Writing application : VirtualDubMod 1.5.10.2 (build 2540/release)
Writing library : VirtualDubMod build 2540/release
Video
ID : 0
Format : MPEG-4 Visual
Format profile : Advanced [email protected]
Format settings, BVOP : 2
Format settings, QPel : No
Format settings, GMC : No warppoints
Format settings, Matrix : Custom
Codec ID : XVID
Codec ID/Hint : XviD
Duration : 1h 27mn
Bit rate : 1 853 Kbps
Width : 720 pixels
Height : 400 pixels
Display aspect ratio : 16:9
Frame rate : 23.976 fps
Color space : YUV
Chroma subsampling : 4:2:0
Bit depth : 8 bits
Scan type : Progressive
Compression mode : Lossy
Bits/(Pixel*Frame) : 0.268
Stream size : 1.13 GiB (82%)
Writing library : XviD 1.2.1 (UTC 2008-12-04)
Audio
ID : 1
Format : AC-3
Format/Info : Audio Coding 3
Mode extension : CM (complete main)
Codec ID : 2000
Duration : 1h 27mn
Bit rate mode : Constant
Bit rate : 384 Kbps
Channel(s) : 6 channels
Channel positions : Front: L C R, Side: L R, LFE
Sampling rate : 48.0 KHz
Bit depth : 16 bits
Compression mode : Lossy
Stream size : 239 MiB (17%)
Alignment : Split accross interleaves
Interleave, duration : 42 ms (1.00 video frame)
Interleave, preload duration : 500 ms

Скриншот с названием фильма

Скриншоты

Создавать темы 24-Дек-2013 07:36

[Профиль]  [ЛС] 

razor2011

Стаж: 5 лет

Сообщений: 227

Симпатии: 37

тв3 ?

Создавать темы 24-Дек-2013 09:32

[Профиль]  [ЛС] 

Азиз87

Стаж: 4 года 10 месяцев

Сообщений: 752

Симпатии: 143

тв3 ?
скорей всего стандартный жанр канала Sci-Fi.

Создавать темы 24-Дек-2013 11:05

[Профиль]  [ЛС] 

edik_123

Стаж: 6 лет 10 месяцев

Сообщений: 14

так себе

Создавать темы 24-Дек-2013 16:42

[Профиль]  [ЛС] 

rafaello

Стаж: 3 года 11 месяцев

Сообщений: 11

Симпатии: 2

ну как фильм ?

Создавать темы 25-Дек-2013 20:18

[Профиль]  [ЛС] 

халит

Стаж: 7 лет 3 месяца

Сообщений: 12

Симпатии: 1

крови много??

Создавать темы 25-Дек-2013 21:11

[Профиль]  [ЛС] 

Exclusive Life

Стаж: 4 года 4 месяца

Сообщений: 22

Симпатии: 1

Ммм красивая журналистка. Отпишитесь как фильм!

Создавать темы 28-Дек-2013 18:14

[Профиль]  [ЛС] 

ILHOMXXX

Стаж: 7 лет 2 месяца

Сообщений: 24

Симпатии: 3

фильм на один раз пойдёт...............

Создавать темы 31-Дек-2013 21:25

[Профиль]  [ЛС] 

Tricks

Стаж: 4 года 10 месяцев

Сообщений: 602

Симпатии: 21

Фильм хороший всем советую

Создавать темы 02-Янв-2014 12:54

[Профиль]  [ЛС] 
Показать сообщения:    
Ответить на тему

Текущее время: 24-Сен 10:06

Часовой пояс: UTC + 5



Вы не можете начинать темы
Вы не можете отвечать на сообщения
Вы не можете редактировать свои сообщения
Вы не можете удалять свои сообщения
Вы не можете голосовать в опросах
Вы не можете прикреплять файлы к сообщениям
Вы не можете скачивать файлы