Много шума из ничего / Much Ado About Nothing (Джосс Уидон) [2012 г., Драма, мелодрама, комедия, HDRip]

Ответить на тему
 

Каротажник ®

Стаж: 4 года

Сообщений: 195

Симпатии: 211

Много шума из ничего / Much Ado About Nothing
Год выпуска: 2012
Страна: США
Жанр: Драма, мелодрама, комедия
Продолжительность: 01:48:52
Перевод:Профессиональный одноголосый [Д. Есарев]
Режиссер: Джосс Уидон
В ролях: Эми Экер, Алексис Денисоф, Нэйтан Филлион, Кларк Грегг, Рид Даймонд, Фрэн Кранц, Джиллиан Моргис, Шон Маэр, Спенсер Трит Кларк, Рики Линдхоум
Описание: В фильме рассказывается о двух влюбленных парах, совершенно не похожих друг на друга. С одной стороны — Бенедикт и Беатриче, которые изначально не слишком-то ладили, с другой — граф Клаудио, взаимно влюбленный в красавицу Геро. Коварный дон Хуан решает расстроить свадьбу последних и обманом заставляет всех поверить, что Геро изменяет своему жениху, после чего и начинаются форменные шекспировские страсти.

Качество: HDRip
Формат: AVI
Видео кодек: XviD
Аудио кодек: AC3
Видео: XviD, 1339 Кбит/с, 720x400
Аудио: AC3, 6 ch, 448 Кбит/с

Media Info

Format : AVI
Format/Info : Audio Video Interleave
File size : 1.37 GiB
Duration : 1h 48mn
Overall bit rate : 1 797 Kbps
Writing application : VirtualDubModRus 1.5.10.2 (build 2542/release)
Writing library : VirtualDubMod build 2542/release
Video #0
ID : 0
Format : MPEG-4 Visual
Format profile : Advanced [email protected]
Format settings, BVOP : 2
Format settings, QPel : No
Format settings, GMC : No warppoints
Format settings, Matrix : Custom
Codec ID : XVID
Codec ID/Hint : XviD
Duration : 1h 48mn
Bit rate : 1 340 Kbps
Width : 720 pixels
Height : 400 pixels
Display aspect ratio : 16:9
Frame rate : 23.976 fps
Color space : YUV
Chroma subsampling : 4:2:0
Bit depth : 8 bits
Scan type : Progressive
Compression mode : Lossy
Bits/(Pixel*Frame) : 0.194
Stream size : 1.02 GiB (75%)
Writing library : XviD 1.2.1 (UTC 2008-12-04)
Audio #1
ID : 1
Format : AC-3
Format/Info : Audio Coding 3
Mode extension : CM (complete main)
Format settings, Endianness : Big
Codec ID : 2000
Duration : 1h 48mn
Bit rate mode : Constant
Bit rate : 448 Kbps
Channel(s) : 6 channels
Channel positions : Front: L C R, Side: L R, LFE
Sampling rate : 48.0 KHz
Bit depth : 16 bits
Compression mode : Lossy
Stream size : 349 MiB (25%)
Alignment : Split accross interleaves
Interleave, duration : 42 ms (1.00 video frame)
Interleave, preload duration : 500 ms

Скриншоты




Последний раз редактировалось: Каротажник (2013-12-25 06:06), всего редактировалось 2 раз(а)

Создавать темы 24-Дек-2013 23:36

[Профиль]  [ЛС] 

СтАсИкОс

Стаж: 6 лет 9 месяцев

Сообщений: 314

Симпатии: 20

постер побольше бы не помешал)

Создавать темы 25-Дек-2013 00:42

[Профиль]  [ЛС] 

TimaK

Стаж: 6 лет 5 месяцев

Сообщений: 129

Симпатии: 23

http://img.uz/
спс

Создавать темы 25-Дек-2013 01:55

[Профиль]  [ЛС] 

TimaK

Стаж: 6 лет 5 месяцев

Сообщений: 129

Симпатии: 23

<a href='http://img.uz/'><img src='http://img.uz/d/2013/12/52b9f63c291d0.jpg' border='0' /></a>

Создавать темы 25-Дек-2013 02:00

[Профиль]  [ЛС] 

Каротажник ®

Стаж: 4 года

Сообщений: 195

Симпатии: 211

увеличел постер готова

Создавать темы 25-Дек-2013 06:06

[Профиль]  [ЛС] 

Sunnat1999

Стаж: 4 года 7 месяцев

Сообщений: 756

Симпатии: 416

Фильм чёрно-белый чтоли?

Создавать темы 25-Дек-2013 06:29

[Профиль]  [ЛС] 
Показать сообщения:    
Ответить на тему

Текущее время: 17-Окт 14:39

Часовой пояс: UTC + 5



Вы не можете начинать темы
Вы не можете отвечать на сообщения
Вы не можете редактировать свои сообщения
Вы не можете удалять свои сообщения
Вы не можете голосовать в опросах
Вы не можете прикреплять файлы к сообщениям
Вы не можете скачивать файлы