Дочь (Александр Касаткин, Наталья Назарова) [2012 г., Драма, детектив, DVDRip] Лицензия

Ответить на тему
 

kat222000 ®

Стаж: 6 лет 8 месяцев

Сообщений: 608

Симпатии: 1055

Дочь- -Год выпуска: 2012
Жанр: Драма, детектив
Продолжительность: 01:45:56-Режиссер: Александр Касаткин, Наталья Назарова-В ролях: Мария Смольнкова, Олег Ткачёв, Игорь Мазепа, Владимир Мишуков, Яна Осипова, Мария Звонарева, Кирилл Назаров, Анастасия Имамова, Евгений Ткачук, Алена Кузнецова...-Описание: Инна живет со своим папой и маленьким братом в небольшом провинциальном городе. Ее жизнь меняется, когда новая девочка — Маша приезжает в школу, в которой учится Инна. Между ними завязывается дружба. Но Маша становится жертвой серийного маньяка, который орудует в городке, убивая девочек 13-15 лет. Приехав на панихиду в церковь, Инна встречает сына священника — Илью, чья сестра тоже была убита.- -Доп. информация: Релиз подготовлен при поддержке проекта CoolDX-Награды, номинации, фестивали:
Главный приз Общественного жюри газеты «Московский комсомолец» 10-го Московского фестиваля отечественного кино «Московская премьера» 2012 г.
На 28-м Международном Кинофестивале в Варшаве - приз ФИПРЕСИ.
Приз за лучший дебют на кинофестивале "СТАЛКЕР"
Лучший дебют "КИНОТАВР" 2012
Гранпри в Благовещенске на кинофестивале "Золотая осень"
Гранпри на кинофестивале "Спутник над Варшавой"
Приз FIPRESCI на международном фестивале в Таллине
Гранпри на международном фестивале "Лучезарный Ангел"
Приз за лучшую режиссуру и лучшую женскую роль на фестивале "Виват Россия!"-Качество: DVDRip (исходник DVD9)
Формат: AVI
Видео кодек: XviD
Аудио кодек: AC3
Видео: 720x400 (1.80:1), 25 fps, XviD build 50 ~1507 kbps avg, 0.21 bit/pixel
Аудио: 48 kHz, AC3 Dolby Digital, 3/2 (L,C,R,l,r) + LFE ch, ~448 kbps-

MediaInfo

General
Complete name : E:\Фильмы\Видео\Doch_2012_DVDRip_1400.avi
Format : AVI
Format/Info : Audio Video Interleave
File size : 1.45 GiB
Duration : 1h 45mn
Overall bit rate : 1 966 Kbps
Writing application : VirtualDubMod 1.5.10.3 | www.virtualdub-fr.org || (build 2550/release)
Writing library : VirtualDubMod build 2550/release
Video
ID : 0
Format : MPEG-4 Visual
Format profile : Advanced [email protected]
Format settings, BVOP : 1
Format settings, QPel : No
Format settings, GMC : No warppoints
Format settings, Matrix : Default (MPEG)
Codec ID : XVID
Codec ID/Hint : XviD
Duration : 1h 45mn
Bit rate : 1 508 Kbps
Width : 720 pixels
Height : 400 pixels
Display aspect ratio : 16:9
Frame rate : 25.000 fps
Color space : YUV
Chroma subsampling : 4:2:0
Bit depth : 8 bits
Scan type : Progressive
Compression mode : Lossy
Bits/(Pixel*Frame) : 0.209
Stream size : 1.12 GiB (77%)
Writing library : XviD 1.2.1 (UTC 2008-12-04)
Audio
ID : 1
Format : AC-3
Format/Info : Audio Coding 3
Mode extension : CM (complete main)
Format settings, Endianness : Big
Codec ID : 2000
Duration : 1h 45mn
Bit rate mode : Constant
Bit rate : 448 Kbps
Channel(s) : 6 channels
Channel positions : Front: L C R, Side: L R, LFE
Sampling rate : 48.0 KHz
Bit depth : 16 bits
Compression mode : Lossy
Stream size : 339 MiB (23%)
Alignment : Split accross interleaves
Interleave, duration : 40 ms (1.00 video frame)
Interleave, preload duration : 500 ms
-

Скриншоты

Создавать темы 25-Дек-2013 06:44

[Профиль]  [ЛС] 

Astrolog

Стаж: 5 лет 6 месяцев

Сообщений: 213

Симпатии: 27

kat222000, помимо кнопы благодарности в шапке топика, не смог удержаться, чтобы не написать:
Спасибо Вам за Ваши раздачи, огромная благодарность (и несомненно создателям - авторам киноленты, людям, способствующим распространению) за фильмы такого формата и содержания!
P.S. Остаюсь на раздаче до крайнего...

Создавать темы 26-Дек-2013 23:54

[Профиль]  [ЛС] 

kat222000 ®

Стаж: 6 лет 8 месяцев

Сообщений: 608

Симпатии: 1055

kat222000, помимо кнопы благодарности в шапке топика, не смог удержаться, чтобы не написать:
Спасибо Вам за Ваши раздачи, огромная благодарность (и несомненно создателям - авторам киноленты, людям, способствующим распространению) за фильмы такого формата и содержания!
P.S. Остаюсь на раздаче до крайнего...
СПАСИБО...

Создавать темы 27-Дек-2013 06:20

[Профиль]  [ЛС] 

root

Стаж: 5 лет 6 месяцев

Сообщений: 592

Симпатии: 172

Замечательный фильм!!!

Создавать темы 27-Дек-2013 23:22

[Профиль]  [ЛС] 
Показать сообщения:    
Ответить на тему

Текущее время: 16-Дек 18:08

Часовой пояс: UTC + 5



Вы не можете начинать темы
Вы не можете отвечать на сообщения
Вы не можете редактировать свои сообщения
Вы не можете удалять свои сообщения
Вы не можете голосовать в опросах
Вы не можете прикреплять файлы к сообщениям
Вы не можете скачивать файлы