7 ящиков / 7 cajas (Хуан Карлос Манеглиа, Тана Шембори) [2012; Парагвай; боевик, триллер; WEBDL-Rip] [лицензия]

Ответить на тему
 

Suxrob89 ®

Стаж: 7 лет 2 месяца

Сообщений: 933

Симпатии: 564

-7 ящиков / 7 cajas - Год выпуска: 2012
Страна: Парагвай
Жанр: боевик, триллер
Продолжительность: 01:41:09
Перевод: Профессиональное (многоголосое) [лицензия]
Субтитры: Нет-Режиссёр: Хуан Карлос Манеглиа, Тана Шембори-В ролях: Челсо Франко, Лали Гонсалес, Нико Гарсия, Палетита, Маню Портильо, Марио Тоньянес, Нелли Давалос, Роберто Кардозо, Джонни Ким, Луис Гутиеррез.-Описание: Главный герой получает загадочное предложение, от которого невозможно отказаться. Герою предлагают доставить 7 ящиков с таинственным содержимым за щедрое вознаграждение. Но легкая «халтурка» оборачивается смертельно опасными «американскими горками»…- -Качество: WEBDL-Rip
Формат: AVI
Видео кодек: XviD
Аудио кодек: AC3
Видео: XviD, 1595 kb/s, 720x384
Аудио: AC3, 6 ch, 384 Кбит/с

Media info

D:\Sem.yashikov.2012.P.WEB-DLRip.avi
General
Complete name : D:\Sem.yashikov.2012.P.WEB-DLRip.avi
Format : AVI
Format/Info : Audio Video Interleave
File size : 1.46 GiB
Duration : 1h 45mn
Overall bit rate : 1 989 Kbps
Writing application : VirtualDubMod 1.5.10.3 | www.virtualdub-fr.org || (build 2550/release)
Writing library : VirtualDubMod build 2550/release
Video #0
ID : 0
Format : MPEG-4 Visual
Format profile : Advanced [email protected]
Format settings, BVOP : 2
Format settings, QPel : No
Format settings, GMC : No warppoints
Format settings, Matrix : Default (MPEG)
Codec ID : XVID
Codec ID/Hint : XviD
Duration : 1h 45mn
Bit rate : 1 596 Kbps
Width : 720 pixels
Height : 384 pixels
Display aspect ratio : 1.85:1
Frame rate : 24.000 fps
Color space : YUV
Chroma subsampling : 4:2:0
Bit depth : 8 bits
Scan type : Progressive
Compression mode : Lossy
Bits/(Pixel*Frame) : 0.240
Stream size : 1.17 GiB (80%)
Writing library : XviD 1.2.1 (UTC 2008-12-04)
Audio #1
ID : 1
Format : AC-3
Format/Info : Audio Coding 3
Mode extension : CM (complete main)
Format settings, Endianness : Big
Codec ID : 2000
Duration : 1h 45mn
Bit rate mode : Constant
Bit rate : 384 Kbps
Channel(s) : 6 channels
Channel positions : Front: L C R, Side: L R, LFE
Sampling rate : 48.0 KHz
Bit depth : 16 bits
Compression mode : Lossy
Stream size : 289 MiB (19%)
Alignment : Split accross interleaves
Interleave, duration : 42 ms (1.00 video frame)
Interleave, preload duration : 500 ms

Скриншоты

Создавать темы 25-Дек-2013 07:32

[Профиль]  [ЛС] 

УМНИЦА

Стаж: 4 года 4 месяца

Сообщений: 19

Симпатии: 2

Отличн. фильм

Создавать темы 25-Дек-2013 10:13

[Профиль]  [ЛС] 

outoforder

Стаж: 4 года 11 месяцев

Сообщений: 812

Симпатии: 172

Да, посмотрев этот фильм вы убедитесь, что есть страны где пипл живет похуже, чем у нас, так что рекомендую ay. Хотя, возможно, режиссер слегка утрирует насчет бедности Парагвая. Боевиком и триллером назвать язык не поворачивается, скорее односерийный сериалец "кто подставил парня с тележкой". Умиляет огромная любовь режиссера к зомбоящику вообще и сериальчикам в частности (которую он перенес на главгероя) - сразу становится видно откуда же он набрался опыта для съёмок своего творения.

Создавать темы 30-Дек-2013 13:14

[Профиль]  [ЛС] 

Ilham

Стаж: 6 лет 8 месяцев

Сообщений: 103

Симпатии: 3

кто нибудь встанте на раздачу

Создавать темы 04-Янв-2014 20:58

[Профиль]  [ЛС] 
Показать сообщения:    
Ответить на тему

Текущее время: 21-Окт 00:34

Часовой пояс: UTC + 5



Вы не можете начинать темы
Вы не можете отвечать на сообщения
Вы не можете редактировать свои сообщения
Вы не можете удалять свои сообщения
Вы не можете голосовать в опросах
Вы не можете прикреплять файлы к сообщениям
Вы не можете скачивать файлы