Рождественская свадьба / A Christmas Wedding Date (Фред Олен Рэй) [2012 г., Комедия, мелодрама, DVDRip]

Ответить на тему
 

bexa96 ®

Стаж: 6 лет 7 месяцев

Сообщений: 381

Симпатии: 49

Рождественская свадьба / A Christmas Wedding Date Год выпуска: 2012
Страна: США, ARO Entertainment
Жанр: Комедия, мелодрама
Продолжительность: 01:23:27
Перевод: Профессиональный (многоголосный)
Режиссер: Фред Олен Рэй
В ролях: Крис Кармак, Ванесса Ли Эвиган, Ленни Джейкобсон, Леви Филер, Майкл Данн, Стюарт Пэнкин, Дэниэл Буко, Дэвид ДеЛуис, Джордж Уэндт
Описание: Девушка возвращается в город детства, чтобы посетить свадьбу друзей, которая должна состояться в канун Рождества, но события начинают повторяться вновь и вновь.
Доп. информация:
Сценарий: Питер Салливан, Фред Олен Рэй, Джеффри Шенк
Продюсер: Фред Олен Рэй, Бэрри Барнхолц, Бонни Комли
Оператор: Тео Энджелл
Композитор: Мэттью Джансзен
Художник: Адеа ДеКарло, Александр Эрнандез, Кэролин Бергер
Монтаж: Роб Паллатина
Качество: DVDRip
Формат: AVI
Видео кодек: XviD
Аудио кодек: MP3
Видео: XviD, 1894 Кбит/с, 720x400
Аудио: Русский, английский (MP3, 2 ch, 224 Кбит/с)

MediaInfo

General
Complete name : D:\kino\noviy god\Rozhdestvenskaj.svadjba.2012.P.DVDRip.Tas-ix.Net.avi
Format : AVI
Format/Info : Audio Video Interleave
File size : 1.37 GiB
Duration : 1h 23mn
Overall bit rate : 2 356 Kbps
Writing application : VirtualDubMod 1.5.10.2 (build 2540/release)
Writing library : VirtualDubMod build 2540/release
Video
ID : 0
Format : MPEG-4 Visual
Format profile : Advanced [email protected]
Format settings, BVOP : 2
Format settings, QPel : No
Format settings, GMC : No warppoints
Format settings, Matrix : Default (H.263)
Muxing mode : Packed bitstream
Codec ID : XVID
Codec ID/Hint : XviD
Duration : 1h 23mn
Bit rate : 1 894 Kbps
Width : 720 pixels
Height : 400 pixels
Display aspect ratio : 16:9
Frame rate : 25.000 fps
Color space : YUV
Chroma subsampling : 4:2:0
Bit depth : 8 bits
Scan type : Progressive
Compression mode : Lossy
Bits/(Pixel*Frame) : 0.263
Stream size : 1.10 GiB (80%)
Writing library : XviD 1.1.0 (UTC 2005-11-22)
Audio #1
ID : 1
Format : AC-3
Format/Info : Audio Coding 3
Mode extension : CM (complete main)
Codec ID : 2000
Duration : 1h 23mn
Bit rate mode : Constant
Bit rate : 224 Kbps
Channel(s) : 2 channels
Channel positions : Front: L R
Sampling rate : 48.0 KHz
Bit depth : 16 bits
Compression mode : Lossy
Stream size : 134 MiB (10%)
Alignment : Split accross interleaves
Interleave, duration : 40 ms (1.00 video frame)
Interleave, preload duration : 500 ms
Audio #2
ID : 2
Format : AC-3
Format/Info : Audio Coding 3
Mode extension : CM (complete main)
Codec ID : 2000
Duration : 1h 23mn
Bit rate mode : Constant
Bit rate : 224 Kbps
Channel(s) : 2 channels
Channel positions : Front: L R
Sampling rate : 48.0 KHz
Bit depth : 16 bits
Compression mode : Lossy
Stream size : 134 MiB (10%)
Alignment : Split accross interleaves
Interleave, duration : 40 ms (1.00 video frame)
Interleave, preload duration : 500 ms

Скриншоты





Последний раз редактировалось: bexa96 (2013-12-27 06:15), всего редактировалось 3 раз(а)

Создавать темы 25-Дек-2013 23:01

[Профиль]  [ЛС] 
Показать сообщения:    
Ответить на тему

Текущее время: 23-Авг 01:43

Часовой пояс: UTC + 5



Вы не можете начинать темы
Вы не можете отвечать на сообщения
Вы не можете редактировать свои сообщения
Вы не можете удалять свои сообщения
Вы не можете голосовать в опросах
Вы не можете прикреплять файлы к сообщениям
Вы не можете скачивать файлы