Зной Явы / Пылающий остров / Java Heat (Конор Эллин) [2012 г., боевик, триллер, драма, криминал, ..., HDRip]

Ответить на тему
 

igor1968 ®

Стаж: 5 лет 8 месяцев

Сообщений: 366

Симпатии: 197

Зной Явы / Пылающий остров / Java Heat«Всё не так, как кажется» Год выпуска: 2012
Страна:
Жанр: боевик, триллер, драма, криминал, ...
Продолжительность: 01:43:46.313
Перевод: Любительский (одноголосый) [den904]
Режиссер: Конор Эллин
В ролях: Келлан Латс
Арио Баю
Микки Рурк
Атика Хасихолан
Ули Аульяни
Франс Тамбуан
Тио Пакусодево
Майк Мульярдо
Рио Деванто
Астри Нурдин
...
Молодой американец Джейк приезжает в Юго-Восточную Азию, чтобы сражаться с исламскими террористами. В компании с местным детективом-мусульманином он преследует изобретательного вора, который специально организовывает взрывы и похищения, чтобы осуществлять кражи драгоценностей, произведений искусства и даже принцессы.- -премьера
11 апреля 2013, ...
премьера
12 декабря 2013, «West»-Качество: HDRip
Формат: AVI
Видео кодек: XviD
Аудио кодек: MPEG Audio
Видео: 688x288 (2.39:1), 23.976 fps, XviD build 50 ~871 kbps avg, 0.18 bit/pixel
Аудио: 48 kHz, MPEG Layer 3, 2 ch, ~128.00 kbps avg-

MediaInfo

General
Complete name :Java Heat.2013_HDRip_[scarabey.org].avi
Format : AVI
Format/Info : Audio Video Interleave
File size : 749 MiB
Duration : 1h 43mn
Overall bit rate : 1 009 Kbps
Writing application : VirtualDubMod 1.5.10.2 (build 2540/release)
Writing library : VirtualDubMod build 2540/release
Video
ID : 0
Format : MPEG-4 Visual
Format profile : Advanced [email protected]
Format settings, BVOP : Yes
Format settings, QPel : No
Format settings, GMC : No warppoints
Format settings, Matrix : Custom
Codec ID : XVID
Codec ID/Hint : XviD
Duration : 1h 43mn
Bit rate : 872 Kbps
Width : 688 pixels
Height : 288 pixels
Display aspect ratio : 2.40:1
Frame rate : 23.976 fps
Color space : YUV
Chroma subsampling : 4:2:0
Bit depth : 8 bits
Scan type : Progressive
Compression mode : Lossy
Bits/(Pixel*Frame) : 0.183
Stream size : 647 MiB (86%)
Writing library : XviD 1.2.1 (UTC 2008-12-04)
Audio
ID : 1
Format : MPEG Audio
Format version : Version 1
Format profile : Layer 3
Codec ID : 55
Codec ID/Hint : MP3
Duration : 1h 43mn
Bit rate mode : Constant
Bit rate : 128 Kbps
Channel count : 2 channels
Sampling rate : 48.0 KHz
Compression mode : Lossy
Stream size : 95.0 MiB (13%)
Alignment : Aligned on interleaves
Interleave, duration : 42 ms (1.00 video frame)
Interleave, preload duration : 504 ms
Writing library : LAME3.97
Encoding settings : -m s -V 4 -q 2 -lowpass 17 -b 128
-

Скриншоты

- -


Последний раз редактировалось: igor1968 (2013-12-27 06:13), всего редактировалось 1 раз

Создавать темы 26-Дек-2013 16:41

[Профиль]  [ЛС] 

star_from_the_sky

Стаж: 4 года 6 месяцев

Сообщений: 22

Симпатии: 3

я бы сказал Веб-рип

Создавать темы 26-Дек-2013 19:48

[Профиль]  [ЛС] 

igor1968 ®

Стаж: 5 лет 8 месяцев

Сообщений: 366

Симпатии: 197

я бы сказал Веб-рип
Читайте "MI"

Создавать темы 26-Дек-2013 20:09

[Профиль]  [ЛС] 

alecs-wert

Стаж: 5 лет 8 месяцев

Сообщений: 13

?Вообще-то это фильм называется =Зной Явы=и он уже был на раздаче..

Создавать темы 26-Дек-2013 20:42

[Профиль]  [ЛС] 

igor1968 ®

Стаж: 5 лет 8 месяцев

Сообщений: 366

Симпатии: 197

?Вообще-то это фильм называется =Зной Явы=и он уже был на раздаче..
Где и когда?

Создавать темы 26-Дек-2013 21:23

[Профиль]  [ЛС] 
Показать сообщения:    
Ответить на тему

Текущее время: 18-Ноя 02:29

Часовой пояс: UTC + 5



Вы не можете начинать темы
Вы не можете отвечать на сообщения
Вы не можете редактировать свои сообщения
Вы не можете удалять свои сообщения
Вы не можете голосовать в опросах
Вы не можете прикреплять файлы к сообщениям
Вы не можете скачивать файлы