[#208] Двойная рокировка / Infernal Affairs / Mou gaan dou (Вэй Кеунг Лау, Сиу Фай Мак) [2002 г., триллер, криминал, детектив, BDRip] MVO

Ответить на тему
 

kat222000 ®

Стаж: 6 лет 6 месяцев

Сообщений: 608

Симпатии: 1055

Двойная рокировка / Infernal Affairs / Mou gaan dou«Sekai wo chinmoku saseta! Onna mo horeru honmono no otoko no drama [Япония]»- -Год выпуска: 2002
Страна: Гонконг
Жанр: триллер, криминал, детектив
Продолжительность: 01:40:48
Перевод: Профессиональный (многоголосый, закадровый)

Режиссер: Вэй Кеунг Лау, Сиу Фай Мак-В ролях: Энди Лау, Тони Люн Чу Вай, Энтони Вонг Чау-Санг, Эрик Тсанг, Келли Чен, Сэмми Чэн, Эдисон Чен, Шон Юе, Элва Хсиао, Чэпман То-Описание: История двух людей, ежесекундно рискующих жизнью. Один из них - агент мафии в полиции; другой - полицейский, внедренный в мафию. Каждый стремится к одному:разоблачить врага. Ян был самым многообещающим кадетом в полицейской академии, поэтому на роль агента под прикрытием комиссар Вонг рекомендовал начальству именно его. Яна показательно выгоняют из академии и внедряют в мир триад, а документы о его истинном задании убирают в самый дальний уголок архивов. Проходит 10 лет, Ян по-прежнему живет чужой жизнью и меняет своих боссов, информацию о которых дисциплинированно передает Вонгу. В конце концов, он попадает под начало мафиози Сэма, где сталкивается с резким противодействием. Дело в том, что в полиции тоже есть стукач - инспектор Лау, учившийся вместе с Яном в академии, как раз работает на Сэма. Жарко становится, когда и бандит Сэм, и ментор Яна полицейский Вонг понимают, что в эту игру могут играть двое. Щелкает невидимый таймер, и обе организации принимаются искать в своих рядах предателя. Выиграет тот, кто станет первым, и утешительного приза за второе место можно не ждать.- -«Двойная рокировка»: (кит. 無間道, англ. Infernal Affairs) — гонконгский кинофильм 2002 года, снятый режиссёрами Эндрю Лау и Аланом Маком. В 2006 году вышел голливудский ремейк фильма — «Отступники» (режиссёр Мартин Скорсезе).-Качество: BDRip / (BDRip 1080)/
Формат: AVI
Видео кодек: XviD
Аудио кодек: AC3
Видео: Xvid, 720x304, 24fps, 1 612 Kbps [Stream 00]
Аудио: Dolby AC3, 48000Hz, 6ch, 447kbps [Stream 01]-

Награды и номинации

*2003 — приз за лучший звук на Азиатско-тихоокеанском кинофестивале (Кинсон Цанг)
*2003 — 6 премий «Золотая лошадь» (Тайвань): лучший фильм, лучший режиссёр (Эндрю Лау, Алан Мак), лучший актёр (Тони Люн), лучший актёр второго плана (Энтони Вон), лучшие звуковые эффекты (Кинсон Цанг), премия «Выбор зрителей»; а также ещё 7 номинаций
*2003 — 7 премий Hong Kong Film Awards: лучший фильм, лучший режиссёр (Эндрю Лау, Алан Мак), лучший актёр (Тони Люн), лучший актёр второго плана (Энтони Вон), лучший сценарий (Алан Мак, Феликс Чон), лучший монтаж (Дэнни Пан, Кёрран Пан), лучшая оригинальная песня; а также 9 номинаций
*2004 — премия «Голубая лента» (Япония) за лучший фильм на иностранном языке
-

MediaInfo

General
Complete name : E:\Фильмы\Видео\dvojnaja_rokirovka.avi
Format : AVI
Format/Info : Audio Video Interleave
File size : 1.46 GiB
Duration : 1h 40mn
Overall bit rate : 2 070 Kbps
Movie name : Двойная рокировка / Infernal Affairs (2002)
Director : SENATOR (BDRip 1080)
Writing application : VirtualDubMod 1.5.10.2 (build 2542/release)
Copyright : HQ-ViDEO (www.hq-video.ru)
Comment : 2.06.2008
Video
ID : 0
Format : MPEG-4 Visual
Format profile : Advanced Simple@L5
Format settings, BVOP : 1
Format settings, QPel : No
Format settings, GMC : No warppoints
Format settings, Matrix : Default (MPEG)
Codec ID : XVID
Codec ID/Hint : XviD
Duration : 1h 40mn
Bit rate : 1 612 Kbps
Width : 720 pixels
Height : 304 pixels
Display aspect ratio : 2.35:1
Frame rate : 24.000 fps
Color space : YUV
Chroma subsampling : 4:2:0
Bit depth : 8 bits
Scan type : Progressive
Compression mode : Lossy
Bits/(Pixel*Frame) : 0.307
Stream size : 1.14 GiB (78%)
Writing library : XviD 1.2.0.dev47 (UTC 2006-11-01)
Audio
ID : 1
Format : AC-3
Format/Info : Audio Coding 3
Mode extension : CM (complete main)
Format settings, Endianness : Big
Codec ID : 2000
Duration : 1h 40mn
Bit rate mode : Constant
Bit rate : 448 Kbps
Channel(s) : 6 channels
Channel positions : Front: L C R, Side: L R, LFE
Sampling rate : 48.0 KHz
Bit depth : 16 bits
Compression mode : Lossy
Stream size : 323 MiB (22%)
Alignment : Split accross interleaves
Interleave, duration : 42 ms (1.00 video frame)
Interleave, preload duration : 500 ms
-

Скриншоты

Создавать темы 26-Дек-2013 21:06

[Профиль]  [ЛС] 

Honda

Стаж: 6 лет 11 месяцев

Сообщений: 93

Симпатии: 1

оригинал отступников)

Создавать темы 26-Дек-2013 22:39

[Профиль]  [ЛС] 

archer

Стаж: 5 лет 9 месяцев

Сообщений: 176

Жду !!! ^_^ спс автору

Создавать темы 26-Дек-2013 23:30

[Профиль]  [ЛС] 

tatar1189

Стаж: 3 года 10 месяцев

Сообщений: 8

Хороший фильм)
С удовольствием посмотрю заново)

Создавать темы 27-Дек-2013 18:24

[Профиль]  [ЛС] 

tatar1189

Стаж: 3 года 10 месяцев

Сообщений: 8

У кого нибудь есть другие части этого фильма?
Их бы тоже с удовольствие посмотрел)

Создавать темы 28-Дек-2013 00:17

[Профиль]  [ЛС] 

igayist

Стаж: 5 лет 9 месяцев

Сообщений: 29

Да было бы неплохо если бы выложили продолжения!!!

Создавать темы 29-Янв-2014 20:20

[Профиль]  [ЛС] 

faceman

Стаж: 5 лет 9 месяцев

Сообщений: 27

Симпатии: 1

А я и незнал что Отступники ремейк этого фильма. Посмотрю однозначно, благодарю!

Создавать темы 30-Янв-2014 01:26

[Профиль]  [ЛС] 

tahir

Стаж: 6 лет 10 месяцев

Сообщений: 9

Симпатии: 1

764522Да было бы неплохо если бы выложили продолжения!!!
Вторая часть фильма http://tas-ix.net/viewtopic.php?t=88683

Создавать темы 17-Фев-2014 23:02

[Профиль]  [ЛС] 

tahir

Стаж: 6 лет 10 месяцев

Сообщений: 9

Симпатии: 1

Третья часть фильма http://tas-ix.net/viewtopic.php?t=88787

Создавать темы 18-Фев-2014 20:38

[Профиль]  [ЛС] 

Жасулан_89

Стаж: 5 лет 1 месяц

Сообщений: 70

Симпатии: 2

Да раздайте уже... или только у меня такие проблемы с говнолайном?

Создавать темы 22-Фев-2014 13:51

[Профиль]  [ЛС] 

10rib4aaa

Стаж: 3 года 11 месяцев

Сообщений: 7

фильм класс !!!

Создавать темы 10-Мар-2014 01:04

[Профиль]  [ЛС] 
Показать сообщения:    
Ответить на тему

Текущее время: 23-Окт 09:32

Часовой пояс: UTC + 5



Вы не можете начинать темы
Вы не можете отвечать на сообщения
Вы не можете редактировать свои сообщения
Вы не можете удалять свои сообщения
Вы не можете голосовать в опросах
Вы не можете прикреплять файлы к сообщениям
Вы не можете скачивать файлы