Дом забытых вещей / House of Last Things (Майкл Бартлетт / Michael Bartlett) [2013, США, фэнтези, триллер, DVDRip] [Лицензия]

Ответить на тему
 

Suxrob89 ®

Стаж: 7 лет 1 месяц

Сообщений: 933

Симпатии: 564

-Дом забытых вещей / House of Last Things-«Подбери ключ. Открой прошлое»- Страна: США / Nimbus Film Productions
Жанр: фэнтези, триллер
Год выпуска: 2013
Продолжительность: 01:50:27
Перевод: Профессиональный (многоголосый, закадровый) [Лицензия]
Субтитры: нет-Режиссер: Майкл Бартлетт / Michael Bartlett-В ролях: Линдси Хоун, Блейк Беррис, RJ Митт, Рэнди Шульман, Дайан Далтон, Мика Нельсон, Мишель Мариана, Морин Литтрелл, Брэндон Смит, Тим Уиткомб, Бродерик Бойд, Сьюзэн Фанк-Описание: Действие фильма развивается в Портленде, штат Орегон. Скрытая трагедия повлияла на дом, его временных смотрителей и владельцев...- -Сценарий: Майкл Бартлетт / Michael Bartlett
Продюсер: Майкл Бартлетт / Michael Bartlett, Джон Мэннинг / Jon Manning, Рене Берндт / Rene Berndt, Лиз Бранденбург / Liz Brandenburg, Шелли Хэйард / Shelly Heyward
Оператор: Кен Келш / Ken Kelsch
Композитор: Алессандро Понти / Alessandro Ponti, Эндрю Пул Тодд / Andrew Poole Todd
Мировая премьера: 31 января 2013
Релиз на DVD: 21 ноября 2013, «CD Land», ...-Качество: DVDRip
Контейнер: AVI
Видео: XviD, 720x400 (16:9), 1626 kbps, 25 fps, 0,226 bpp
Аудио: AC3 / 5.1 / 48 kHz / 256 kbps / 16 bit-

Знаете ли Вы, что...

  • Первая роль RJ Митта в художественном фильме. На съемки в Портленд, штат Орегон, он ездил из Лос-Анджелеса вместе со своей семьей и четырьмя домашними собаками.

Media Info

Format : AVI
Format/Info : Audio Video Interleave
File size : 1.46 GiB
Duration : 1h 50mn
Overall bit rate : 1 892 Kbps
Writing application : VirtualDubMod 1.5.10.2 (build 2540/release)
Writing library : VirtualDubMod build 2540/release
Video
ID : 0
Format : MPEG-4 Visual
Format profile : Advanced [email protected]
Format settings, BVOP : 2
Format settings, QPel : No
Format settings, GMC : No warppoints
Format settings, Matrix : Default (MPEG)
Codec ID : XVID
Codec ID/Hint : XviD
Duration : 1h 50mn
Bit rate : 1 627 Kbps
Width : 720 pixels
Height : 400 pixels
Display aspect ratio : 16:9
Frame rate : 25.000 fps
Color space : YUV
Chroma subsampling : 4:2:0
Bit depth : 8 bits
Scan type : Progressive
Compression mode : Lossy
Bits/(Pixel*Frame) : 0.226
Stream size : 1.26 GiB (86%)
Writing library : XviD 1.2.1 (UTC 2008-12-04)
Audio
ID : 1
Format : AC-3
Format/Info : Audio Coding 3
Mode extension : CM (complete main)
Codec ID : 2000
Duration : 1h 50mn
Bit rate mode : Constant
Bit rate : 256 Kbps
Channel(s) : 6 channels
Channel positions : Front: L C R, Side: L R, LFE
Sampling rate : 48.0 KHz
Bit depth : 16 bits
Compression mode : Lossy
Stream size : 202 MiB (14%)
Alignment : Split accross interleaves
Interleave, duration : 40 ms (1.00 video frame)
Interleave, preload duration : 500 ms

Скриншот с названием фильма

Скриншоты

Создавать темы 27-Дек-2013 19:59

[Профиль]  [ЛС] 

DeFenDer007

Стаж: 4 года 2 месяца

Сообщений: 191

Симпатии: 9

Suxrob рулит )))

_________________
Подпись отключена за нарушение правил форума

Создавать темы 27-Дек-2013 20:23

[Профиль]  [ЛС] 

Suxrob89 ®

Стаж: 7 лет 1 месяц

Сообщений: 933

Симпатии: 564

Ну в мире нету Ёлки 3 выйдет выложу

Создавать темы 27-Дек-2013 21:32

[Профиль]  [ЛС] 

Davrick

Стаж: 4 года 6 месяцев

Сообщений: 37

ну как фильм?

Создавать темы 27-Дек-2013 22:40

[Профиль]  [ЛС] 

Jnec

Стаж: 4 года 11 месяцев

Сообщений: 165

Спасибо!!!

Создавать темы 28-Дек-2013 23:31

[Профиль]  [ЛС] 

Agness

Стаж: 5 лет 4 месяца

Сообщений: 208

Симпатии: 10

Suxrob89, Уже сотый раз пишу( Залей Ёлки 3..
Зав тра

Создавать темы 29-Дек-2013 21:51

[Профиль]  [ЛС] 

сержо

Стаж: 3 года 8 месяцев

Сообщений: 10

отличный ты парень Сухроб! все новинки твои! так держать! с новым годом!

Создавать темы 31-Дек-2013 21:51

[Профиль]  [ЛС] 

outoforder

Стаж: 4 года 10 месяцев

Сообщений: 812

Симпатии: 172

я нифига не понел!!!! в чем фабула произведения???

Создавать темы 03-Янв-2014 22:07

[Профиль]  [ЛС] 

edgemza

Стаж: 6 лет 4 месяца

Сообщений: 191

Симпатии: 7

Ну в мире нету Ёлки 3 выйдет выложу
В мире есть "Елки-3", но они пока Telesync, а оно нам надо?!

Создавать темы 04-Янв-2014 20:53

[Профиль]  [ЛС] 

ILHOMXXX

Стаж: 7 лет 2 месяца

Сообщений: 24

Симпатии: 3

фильм снят по старому американскому сценарию похож на 80-90 годы смысл и суть фильма не ясна..............одним словом на3

Создавать темы 04-Янв-2014 21:04

[Профиль]  [ЛС] 
Показать сообщения:    
Ответить на тему

Текущее время: 24-Сен 19:07

Часовой пояс: UTC + 5



Вы не можете начинать темы
Вы не можете отвечать на сообщения
Вы не можете редактировать свои сообщения
Вы не можете удалять свои сообщения
Вы не можете голосовать в опросах
Вы не можете прикреплять файлы к сообщениям
Вы не можете скачивать файлы