Риддик / Riddick (Дэвид Туи) [2013 г., Фантастика, Боевик, Триллер,Web-DLRip-AVC]

Ответить на тему
 

Sobir76 ®

Стаж: 4 года 3 месяца

Сообщений: 12

Симпатии: 2

Риддик / Riddick
Год выпуска: 2013
Страна: США , Великобритания
Жанр: Фантастика, Боевик, Триллер
Продолжительность: 01:58:39
Перевод: Профессиональный (полное дублирование)(iTunes)
Режиссер: Дэвид Туи
В ролях: Вин Дизель, Карл Урбан, Хорди Молья, Мэтью Нэйбл, Кэти Сакхофф, Дэйв Батиста, Букем Вудбайн, Рауль Трухильо, Конрад Пла, Дэнни Бланко
Описание: Преданный своими и брошенный умирать на пустынной планете, Риддик сражается с хищниками за жизнь и становится сильнее и опаснее себя прежнего. Открывшие на него охоту галактические наемники оказываются пешками в грандиозном плане отмщения. С врагами, возникающими на его пути тогда, когда это нужно самому Риддику, он начинает поход во имя мести, чтобы в конечном счете вернуться на родную Фурию и спасти ее от уничтожения.

Качество: Web-DLRip-AVC
Формат: MKV
Видео кодек: AVC
Аудио кодек: AC3
Видео: MPEG-4 AVC, 3976 Кбит/с, 1916x796
Аудио: Русский (AC3, 6 ch, 384 Кбит/с)
Аудио: Английский (AC3, 6 ch, 384 Кбит/с)

Медиа инфо

f:\НД видео\R1dd1k.2013.D.WEB-DL.1080p.mkv
General
Unique ID : 212727934861753747011983729071485883139 (0xA009E8F42C6608F89BAA2D940C501303)
Complete name : f:\НД видео\R1dd1k.2013.D.WEB-DL.1080p.mkv
Format : Matroska
Format version : Version 2
File size : 4.01 GiB
Duration : 1h 58mn
Overall bit rate : 4 840 Kbps
Encoded date : UTC 2013-12-17 13:20:00
Writing application : mkvmerge v5.8.0 ('No Sleep / Pillow') built on Sep 2 2012 15:37:04
Writing library : libebml v1.2.3 + libmatroska v1.3.0
Video #1
ID : 1
Format : AVC
Format/Info : Advanced Video Codec
Format profile : [email protected]
Format settings, CABAC : Yes
Format settings, ReFrames : 5 frames
Codec ID : V_MPEG4/ISO/AVC
Duration : 1h 58mn
Bit rate : 3 976 Kbps
Width : 1 916 pixels
Height : 796 pixels
Display aspect ratio : 2.40:1
Frame rate mode : Constant
Frame rate : 23.976 fps
Color space : YUV
Chroma subsampling : 4:2:0
Bit depth : 8 bits
Scan type : Progressive
Bits/(Pixel*Frame) : 0.109
Stream size : 3.30 GiB (82%)
Language : English
Default : Yes
Forced : No
Color primaries : BT.709
Transfer characteristics : BT.709
Matrix coefficients : BT.709
Audio #2
ID : 2
Format : AC-3
Format/Info : Audio Coding 3
Mode extension : CM (complete main)
Format settings, Endianness : Big
Codec ID : A_AC3
Duration : 1h 58mn
Bit rate mode : Constant
Bit rate : 384 Kbps
Channel(s) : 6 channels
Channel positions : Front: L C R, Side: L R, LFE
Sampling rate : 48.0 KHz
Bit depth : 16 bits
Compression mode : Lossy
Stream size : 326 MiB (8%)
Language : Russian
Default : Yes
Forced : No
Audio #3
ID : 3
Format : AC-3
Format/Info : Audio Coding 3
Mode extension : CM (complete main)
Format settings, Endianness : Big
Codec ID : A_AC3
Duration : 1h 58mn
Bit rate mode : Constant
Bit rate : 384 Kbps
Channel(s) : 6 channels
Channel positions : Front: L C R, Side: L R, LFE
Sampling rate : 48.0 KHz
Bit depth : 16 bits
Compression mode : Lossy
Stream size : 326 MiB (8%)
Language : English
Default : No
Forced : No

Скриншоты






Последний раз редактировалось: Sobir76 (2013-12-28 20:01), всего редактировалось 2 раз(а)

Создавать темы 28-Дек-2013 08:27

[Профиль]  [ЛС] 

СтАсИкОс

Стаж: 6 лет 9 месяцев

Сообщений: 314

Симпатии: 20

Подправил шапку

Создавать темы 28-Дек-2013 09:55

[Профиль]  [ЛС] 

Sobir76 ®

Стаж: 4 года 3 месяца

Сообщений: 12

Симпатии: 2

WarHzD
Дай свой ай пи адрес и номер порта торрента

Создавать темы 28-Дек-2013 11:04

[Профиль]  [ЛС] 

bexa96

Стаж: 6 лет 9 месяцев

Сообщений: 381

Симпатии: 49

постера сменить
3.15. Запрещена публикация как прямых, так и скрытых ссылок на другие ресурсы сети, особенно если существует раздача на данном форуме (исключениями могут являться ссылки на описание программы/фильма, а также сэмплы и скриншоты). Вкладывать в содержимое торрента прямые ярлыки/рекламу сторонних ресурсов также запрещено.

Создавать темы 28-Дек-2013 13:42

[Профиль]  [ЛС] 

zverblackboxfinder

Стаж: 4 года

Сообщений: 31

Симпатии: 1

когда будет BDRip?

Создавать темы 28-Дек-2013 14:50

[Профиль]  [ЛС] 

Sobir76 ®

Стаж: 4 года 3 месяца

Сообщений: 12

Симпатии: 2

bexa96,
А что я разрекламировал? bu
Если это реклама то модер не ставил бы статус
Но если сочтут этот постер за рекламу ,я уберу tg cb

Создавать темы 28-Дек-2013 21:17

[Профиль]  [ЛС] 

ОЛОЛОШ

Стаж: 5 лет 1 месяц

Сообщений: 141

Симпатии: 3

скорость плиз

Создавать темы 15-Авг-2014 00:36

[Профиль]  [ЛС] 
Показать сообщения:    
Ответить на тему

Текущее время: 21-Окт 19:06

Часовой пояс: UTC + 5



Вы не можете начинать темы
Вы не можете отвечать на сообщения
Вы не можете редактировать свои сообщения
Вы не можете удалять свои сообщения
Вы не можете голосовать в опросах
Вы не можете прикреплять файлы к сообщениям
Вы не можете скачивать файлы