9 песен / 9 Songs (Майкл Уинтерботтом) [2004 г., драма, мелодрама, музыка, ..., DVDRip]

Ответить на тему
 

igor1968 ®

Стаж: 5 лет 5 месяцев

Сообщений: 366

Симпатии: 197

9 песен / 9 Songs«2 Lovers. 1 Year» Год выпуска: 2004
Страна:
Жанр: драма, мелодрама, музыка, ...
Продолжительность: 01:06:53.040
Перевод: Профессиональный (многоголосый)
Режиссер: Майкл Уинтерботтом
В ролях: Киран О’Брайэн
Марго Стилли
Хув Банфорд
Циан Киаран
Бобби Гиллеспи
Боб Харди
Дафидд Июэн
Алекс Капранос
Мани
Ник МакКарти
...
Фильм рассказывает историю любовных и сексуальных отношений Мэтта, учёного, исследующего Антарктиду, и студентки Лизы. Они встретились на рок-концерте, и их отношения продолжались некоторое время, пока Лиза не уехала к себе домой.
Прошло пять лет со времени первого показа фильма "9 песен" на Каннском фестивале, однако шумиха и скандалы вокруг него, до сих пор поднимают не утихают.
Сюжет фильма на редкость прост - молодая пара, парень и девушка, не пропускают ни одного рок-концерта в своём городе, а если они не слушают музыку, то занимаются сексом...
После дебютного показа этого фильма, многие, уважаемые во всем мире, критики, разделились на два лагеря: первые утверждали, что это кино - откровенная и безвкусная порнография, вторые говорили о нем, как о шедевре киноискусства, и новом откровении в кино...
- -премьера
16 мая 2004, ...
премьера
24 марта 2005, «Централ Партнершип»
релиз на DVD
28 апреля 2005, «CP-Digital», ...-Качество: DVDRip
Формат: AVI
Видео кодек: XviD
Аудио кодек: AC3
Видео: 720x384 (1.88:1), 25 fps, XviD build 46 ~2217 kbps avg, 0.32 bit/pixel
Аудио: 48 kHz, AC3 Dolby Digital, 3/2 (L,C,R,l,r) + LFE ch, ~448.00 kbps avg-

MediaInfo

General
Complete name : 9 songs (2004).avi
Format : AVI
Format/Info : Audio Video Interleave
File size : 1.25 GiB
Duration : 1h 6mn
Overall bit rate : 2 675 Kbps
Writing application : VirtualDubModRus 1.5.10.2 (build 2542/release)
Writing library : VirtualDubMod build 2542/release
Video
ID : 0
Format : MPEG-4 Visual
Format profile : Advanced [email protected]
Format settings, BVOP : Yes
Format settings, QPel : No
Format settings, GMC : No warppoints
Format settings, Matrix : Custom
Codec ID : XVID
Codec ID/Hint : XviD
Duration : 1h 6mn
Bit rate : 2 217 Kbps
Width : 720 pixels
Height : 384 pixels
Display aspect ratio : 1.85:1
Frame rate : 25.000 fps
Color space : YUV
Chroma subsampling : 4:2:0
Bit depth : 8 bits
Scan type : Progressive
Compression mode : Lossy
Bits/(Pixel*Frame) : 0.321
Stream size : 1.04 GiB (83%)
Writing library : XviD 1.1.2 (UTC 2006-11-01)
Audio
ID : 1
Format : AC-3
Format/Info : Audio Coding 3
Mode extension : CM (complete main)
Format settings, Endianness : Big
Codec ID : 2000
Duration : 1h 6mn
Bit rate mode : Constant
Bit rate : 448 Kbps
Channel count : 6 channels
Channel positions : Front: L C R, Side: L R, LFE
Sampling rate : 48.0 KHz
Bit depth : 16 bits
Compression mode : Lossy
Stream size : 214 MiB (17%)
Alignment : Split accross interleaves
Interleave, duration : 40 ms (1.00 video frame)
Interleave, preload duration : 500 ms
Language : Russian
-

Скриншоты

- - -


Последний раз редактировалось: igor1968 (2014-01-10 12:01), всего редактировалось 4 раз(а)

Создавать темы 28-Дек-2013 13:54

[Профиль]  [ЛС] 

vanfank

Стаж: 4 года 3 месяца

Сообщений: 141

Симпатии: 5

этот фильм про гитариста Sex Pistols ?

Создавать темы 28-Дек-2013 14:18

[Профиль]  [ЛС] 

Astrolog

Стаж: 5 лет 2 месяца

Сообщений: 213

Симпатии: 27

Пели уже в менее качественном переводе...
Пусть ещё раз споют...))

Создавать темы 28-Дек-2013 14:28

[Профиль]  [ЛС] 

Wolfling

Стаж: 4 года 6 месяцев

Сообщений: 48

Симпатии: 3

-Дедушка, дедушка, а почему у нас демографический кризис?
-Потому, внучек, что раньше целовались в губы...

Создавать темы 28-Дек-2013 15:06

[Профиль]  [ЛС] 

ms700

Стаж: 4 года 11 месяцев

Сообщений: 20

Спасибо автору за релиз, но нужно наверное указать на возрастное ограничение.

Создавать темы 29-Дек-2013 01:01

[Профиль]  [ЛС] 

nataschats

Стаж: 3 года 8 месяцев

Сообщений: 9

Симпатии: 1

Понравилась актриса) Фильм в принципе не тянет на звание арт-хауса.

Создавать темы 06-Янв-2014 21:02

[Профиль]  [ЛС] 

serj777

Стаж: 4 года 1 месяц

Сообщений: 59

Симпатии: 3

+20 )))

Создавать темы 14-Апр-2014 00:23

[Профиль]  [ЛС] 

ELEKTROTOUCH

Стаж: 4 года 11 месяцев

Сообщений: 1

как скачать

Создавать темы 05-Янв-2015 17:33

[Профиль]  [ЛС] 
Показать сообщения:    
Ответить на тему

Текущее время: 20-Авг 07:01

Часовой пояс: UTC + 5



Вы не можете начинать темы
Вы не можете отвечать на сообщения
Вы не можете редактировать свои сообщения
Вы не можете удалять свои сообщения
Вы не можете голосовать в опросах
Вы не можете прикреплять файлы к сообщениям
Вы не можете скачивать файлы