Рандом / The Random (Павел Кхвалеев ) [2013, Россия, драма, мистика, музыка, WEB-DLRip]

Ответить на тему
 

igor1968 ®

Стаж: 5 лет 9 месяцев

Сообщений: 366

Симпатии: 197

Рандом / The Random
Год выпуска: 2013
Жанр: : драма, мистика, музыка
Продолжительность: 01:28:27
Страна: Россия
Режиссер: Павел Хвалеев
В ролях: Игорь Преображенский
Екатерина Сиротина
Павел Хвалеев
Евгений Храмов
Девушка из другого измерения использует таинственную функцию «Рандом» для материализации в нашем мире и выполнения определенной миссии. Ей неизвестна цель, ее ведет только интуиция и 100%-ное доверие Игре. На своем пути в город она встречает разных людей — тех, кому должна помочь. И тех, с кем лучше не встречаться… Беременная девушка, обладающая удивительным даром. Страховой агент, исследующий свою темную сторону. Женщина-полицейский, танцующая фламенко. Мужчина, пытающийся разыскать дочь, брошенную им 20 лет назад… Их роли тоже неслучайны — в этой сложной игре с названием «Рандом».- -премьера
18 декабря 2013-Качество: WEB-DLRip
Формат: AVI
Видео кодек: XviD
Аудио кодек: MPEG Audio
Видео: 688x288 (2.39:1), 23.976 fps, XviD build 73 ~1041 kbps avg, 0.22 bit/pixel
Аудио: 48 kHz, MPEG Layer 3, 2 ch, ~128.00 kbps avg-

MediaInfo

General
Complete name : The.Random.2013_WEB-DRip_[scarabey.org].avi
Format : AVI
Format/Info : Audio Video Interleave
File size : 746 MiB
Duration : 1h 28mn
Overall bit rate : 1 179 Kbps
Writing application : VirtualDubMod 1.5.10.3 | www.virtualdub-fr.org || (build 2550/release)
Writing library : VirtualDubMod build 2550/release
Video
ID : 0
Format : MPEG-4 Visual
Format profile : Advanced [email protected]
Format settings, BVOP : Yes
Format settings, QPel : No
Format settings, GMC : No warppoints
Format settings, Matrix : Custom
Codec ID : XVID
Codec ID/Hint : XviD
Duration : 1h 28mn
Bit rate : 1 041 Kbps
Width : 688 pixels
Height : 288 pixels
Display aspect ratio : 2.40:1
Frame rate : 23.976 fps
Color space : YUV
Chroma subsampling : 4:2:0
Bit depth : 8 bits
Scan type : Progressive
Compression mode : Lossy
Bits/(Pixel*Frame) : 0.219
Stream size : 659 MiB (88%)
Writing library : XviD 73
Audio
ID : 1
Format : MPEG Audio
Format version : Version 1
Format profile : Layer 3
Codec ID : 55
Codec ID/Hint : MP3
Duration : 1h 28mn
Bit rate mode : Constant
Bit rate : 128 Kbps
Channel count : 2 channels
Sampling rate : 48.0 KHz
Compression mode : Lossy
Stream size : 81.0 MiB (11%)
Alignment : Aligned on interleaves
Interleave, duration : 42 ms (1.00 video frame)
Interleave, preload duration : 504 ms
Writing library : LAME3.99r
Encoding settings : -m s -V 4 -q 2 -lowpass 17 -b 128
-

Скриншоты

- - -


Последний раз редактировалось: igor1968 (2013-12-29 19:43), всего редактировалось 4 раз(а)

Создавать темы 29-Дек-2013 18:31

[Профиль]  [ЛС] 
Показать сообщения:    
Ответить на тему

Текущее время: 14-Дек 12:56

Часовой пояс: UTC + 5



Вы не можете начинать темы
Вы не можете отвечать на сообщения
Вы не можете редактировать свои сообщения
Вы не можете удалять свои сообщения
Вы не можете голосовать в опросах
Вы не можете прикреплять файлы к сообщениям
Вы не можете скачивать файлы