Тебе конец! / You're Next (Адам Вингард / Adam Wingard) [2013, США, ужасы, триллер, комедия, HDRip-AVC] (Лицензия)

Ответить на тему
 

Suxrob89 ®

Стаж: 7 лет 4 месяца

Сообщений: 933

Симпатии: 564

-Тебе конец! / You're Next-«Вы уверены, что закрыли дверь?»- Страна: США
Жанр: ужасы, триллер, комедия
Год выпуска: 2013
Продолжительность: 01:34:24
Перевод: Дублированный (Лицензия)
Субтитры: нет-Режиссер: Адам Вингард / Adam Wingard-В ролях: Шарни Винсон, Николас Туччи, Венди Гленн, Эй Джей Боуэн, Джо Сванберг, Барбара Крэмптон, Роб Моран, Маргарет Лэни, Эми Саймец, Тай Уэст, Коллинз Холт, Саймон Баррет-Описание: Банда маньяков в звериных масках, вооруженных топорами и арбалетами, вторгается в загородный дом семьи Дэвисон. Жертвы оказываются в западне... Неожиданно среди них находится один достойный противник, способный дать отпор убийцам.- -Сценарий: Саймон Баррет / Simon Barrett
Продюсер: Саймон Баррет / Simon Barrett, Кит Калдер / Keith Calder, Ким Шерман / Kim Sherman, Джессика Ву / Jessica Wu, Крис Хардинг / Chris Harding
Оператор: Эндрю Дроз Палермо / Andrew Droz Palermo
Композитор: Мэдс Хелдтберг / Mads Heldtberg, Джаспер Джастис Ли / Jasper Justice Lee, Кайл МакКиннон / Kyle McKinnon
Сборы в США: $18 494 006
Сборы в России: $405 235
Дата мировой премьеры: 10 сентября 2011
Дата российской премьеры: 29 августа 2013, «Вольга»-Качество: HDRip-AVC
Контейнер: MKV
Видео: AVC, 1 024x428 (2.40:1), 23.976 fps, 1 748 Kbps (0.166 bit/pixel)
Аудио: 48 kHz, AC3 Dolby Digital, 6 ch, 448 kbps-

Знаете ли Вы, что...

  • 21 сентября 2011 года студия Lionsgate объявила, что она приобрела права на распространение фильма в Америке, Великобритании и Канаде.
  • Фильм был снят еще в 2011 году и демонстрировался на паре кинофестивалей, но в широкий прокат вышел только в августе 2013 года.
  • После того как Феликс бьет Дрейка в грудь пятью ножами, в тот момент, когда он лежит на полу подвала, можно заметить защитный щит, который Дрейк носит под свитером.
  • Сразу же после того момента, как его убивают, Пол лежит на полу с широко открытым ртом. Когда позже снова показывают его тело, его рот закрыт.
  • Количество крови на струнах рояля увеличивается каждый раз после смены кадра.
  • В титрах должность бухгалтера продакшна написана с ошибкой («accountain» вместо правильного «accountant»).
  • еще 1 ошибка

Media Info

D:\Youre.Next.2013.D.HDRip-AVC.1,45GB.mkv
General
Unique ID : 222005077448145038101458974286571482021 (0xA7049F65C01EF671B17F3EA41755ABA5)
Complete name : D:\Youre.Next.2013.D.HDRip-AVC.1,45GB.mkv
Format : Matroska
Format version : Version 4 / Version 2
File size : 1.45 GiB
Duration : 1h 34mn
Overall bit rate : 2 195 Kbps
Movie name : Release for NNM-CLUB
Encoded date : UTC 2014-01-27 16:55:23
Writing application : mkvmerge v6.7.0 ('Back to the Ground') 64bit built on Jan 22 2014 08:47:28
Writing library : libebml v1.3.0 + libmatroska v1.4.1
Attachment : Yes
Video #1
ID : 1
Format : AVC
Format/Info : Advanced Video Codec
Format profile : [email protected]
Format settings, CABAC : Yes
Format settings, ReFrames : 10 frames
Codec ID : V_MPEG4/ISO/AVC
Duration : 1h 34mn
Bit rate : 1 748 Kbps
Width : 1 024 pixels
Height : 428 pixels
Display aspect ratio : 2.40:1
Frame rate mode : Constant
Frame rate : 23.976 fps
Color space : YUV
Chroma subsampling : 4:2:0
Bit depth : 8 bits
Scan type : Progressive
Bits/(Pixel*Frame) : 0.166
Stream size : 1.12 GiB (78%)
Title : Òåáå êîíåö! / You're Next (2013)
Writing library : x264 core 140 r2377 1ca7bb9
Encoding settings : cabac=1 / ref=10 / deblock=1:-2:-1 / analyse=0x3:0x133 / me=umh / subme=9 / psy=1 / psy_rd=1.00:0.10 / mixed_ref=1 / me_range=24 / chroma_me=1 / trellis=2 / 8x8dct=1 / cqm=0 / deadzone=21,11 / fast_pskip=0 / chroma_qp_offset=-3 / threads=12 / lookahead_threads=2 / sliced_threads=0 / nr=0 / decimate=1 / interlaced=0 / bluray_compat=0 / constrained_intra=0 / bframes=9 / b_pyramid=2 / b_adapt=2 / b_bias=0 / direct=3 / weightb=1 / open_gop=0 / weightp=2 / keyint=240 / keyint_min=23 / scenecut=40 / intra_refresh=0 / rc=2pass / mbtree=0 / bitrate=1748 / ratetol=1.0 / qcomp=0.65 / qpmin=0 / qpmax=69 / qpstep=4 / cplxblur=20.0 / qblur=0.5 / ip_ratio=1.40 / pb_ratio=1.30 / aq=1:1.00
Default : Yes
Forced : No
Audio #2
ID : 2
Format : AC-3
Format/Info : Audio Coding 3
Mode extension : CM (complete main)
Format settings, Endianness : Big
Codec ID : A_AC3
Duration : 1h 34mn
Bit rate mode : Constant
Bit rate : 448 Kbps
Channel(s) : 6 channels
Channel positions : Front: L C R, Side: L R, LFE
Sampling rate : 48.0 KHz
Bit depth : 16 bits
Compression mode : Lossy
Stream size : 302 MiB (20%)
Title : Äóáëÿæ (ëèöåíçèÿ) | AC3, 6 ch, 448 kbps
Language : Russian
Default : Yes
Forced : No

Скриншот с названием фильма

Скриншоты



Последний раз редактировалось: Suxrob89 (2014-01-28 07:26), всего редактировалось 2 раз(а)

Создавать темы 30-Дек-2013 08:22

[Профиль]  [ЛС] 

bashi

Стаж: 5 лет 9 месяцев

Сообщений: 42

Suxrob89, лицензия звук когда будет

Создавать темы 30-Дек-2013 10:05

[Профиль]  [ЛС] 

Agness

Стаж: 5 лет 6 месяцев

Сообщений: 208

Симпатии: 10

[Хихикающий Доктор] чушь не переводит

Создавать темы 30-Дек-2013 20:29

[Профиль]  [ЛС] 

ILHOMXXX

Стаж: 7 лет 5 месяцев

Сообщений: 24

Симпатии: 3

всем советую фильм супер.......................

Создавать темы 03-Янв-2014 22:38

[Профиль]  [ЛС] 

outoforder

Стаж: 5 лет

Сообщений: 812

Симпатии: 172

[Хихикающий Доктор] чушь не переводит
всем советую фильм супер.......................
о даа бессмысленное мочилово бытовыми орудиями труда это прям высоко-интеллектуально-закрученный сюжет ag всем любителям гуро посвящается

Создавать темы 07-Янв-2014 18:29

[Профиль]  [ЛС] 

The Khazratov

Стаж: 3 года 10 месяцев

Сообщений: 54

Симпатии: 1

Suxrob89, лицензия звук когда будет
что это не лицензия.

Создавать темы 28-Янв-2014 10:34

[Профиль]  [ЛС] 

Топик был перенесен из форума Тестовый форум в форум HD-AVC

Suxrob89

Создавать темы 29-Янв-2014 20:59

 
Показать сообщения:    
Ответить на тему

Текущее время: 13-Дек 23:45

Часовой пояс: UTC + 5



Вы не можете начинать темы
Вы не можете отвечать на сообщения
Вы не можете редактировать свои сообщения
Вы не можете удалять свои сообщения
Вы не можете голосовать в опросах
Вы не можете прикреплять файлы к сообщениям
Вы не можете скачивать файлы