Пугало / Scarecrow (Шелдон Уилсон / Sheldon Wilson) [2013, США, Канада, ужасы, фантастика, DVDRip] VO

Ответить на тему
 

Suxrob89 ®

Стаж: 7 лет

Сообщений: 933

Симпатии: 564

-Пугало / Scarecrow- Страна: США, Канада
Жанр: ужасы, фантастика
Год выпуска: 2013
Продолжительность: 01:22:31
Перевод: Одноголосый закадровый
Субтитры: нет-Режиссер: Шелдон Уилсон / Sheldon Wilson-В ролях: Лейси Чаберт, Робин Данн, Ричард Хэрмон, Бриттни Уилсон, Николь Муньос, Джулия Максвелл, Айэйн Белчер, Джерри Вассерман, Карло Маркс, Лэни МакОли, Рейли Долмэн-Описание: Шестеро учеников, отбывающих наказание выходного дня за совершенный в школе проступок, прибывают на ферму вместе со своим учителем, чтобы перевести в город соломенное чучело на место празднования ежегодного фестиваля, посвящённого ему. Но то, что должно было быть простой задачей, оборачивается катастрофой. Старая городская легенда, которой пугали первоклассников, оказывается не выдумкой.- -Сценарий: Рик Сювалл / Rick Suvalle
Продюсер: Джэми Горинг / Jamie Goehring, Дуглас Дж. Дэвис / Douglas G. Davis, Christina O'Shea-Daly, Шон Уильямсон / Shawn Williamson, Шелдон Уилсон / Sheldon Wilson
Композитор: Мэттью Роджерс / Matthew Rogers
Бюджет: $2 000 000
Мировая премьера: 5 октября 2013-Качество: DVDRip
Контейнер: AVI
Видео: XviD, 640x352 (16:9), 1044 kbps, 25 fps, 0,185 bpp
Аудио: MP3 / 2.0 / 48 kHz / 128 kbps /-

Media Info

General
Complete name : G:\Pugalo.2013.L1_DVDRip.avi
Format : AVI
Format/Info : Audio Video Interleave
File size : 698 MiB
Duration : 1h 22mn
Overall bit rate : 1 182 Kbps
Writing application : VirtualDubMod 1.5.10.2 (build 2540/release)
Writing library : VirtualDubMod build 2540/release
Video
ID : 0
Format : MPEG-4 Visual
Format profile : Advanced [email protected]
Format settings, BVOP : 2
Format settings, QPel : No
Format settings, GMC : No warppoints
Format settings, Matrix : Default (H.263)
Muxing mode : Packed bitstream
Codec ID : XVID
Codec ID/Hint : XviD
Duration : 1h 22mn
Bit rate : 1 044 Kbps
Width : 640 pixels
Height : 352 pixels
Display aspect ratio : 16:9
Frame rate : 25.000 fps
Color space : YUV
Chroma subsampling : 4:2:0
Bit depth : 8 bits
Scan type : Progressive
Compression mode : Lossy
Bits/(Pixel*Frame) : 0.185
Stream size : 616 MiB (88%)
Writing library : XviD 64
Audio
ID : 1
Format : MPEG Audio
Format version : Version 1
Format profile : Layer 3
Mode : Joint stereo
Mode extension : MS Stereo
Codec ID : 55
Codec ID/Hint : MP3
Duration : 1h 22mn
Bit rate mode : Constant
Bit rate : 128 Kbps
Channel(s) : 2 channels
Sampling rate : 48.0 KHz
Compression mode : Lossy
Stream size : 75.5 MiB (11%)
Alignment : Aligned on interleaves
Interleave, duration : 40 ms (1.00 video frame)
Interleave, preload duration : 504 ms

Скриншот с названием фильма

Скриншоты

Создавать темы 30-Дек-2013 08:28

[Профиль]  [ЛС] 

Furqat_76

Стаж: 5 лет 4 месяца

Сообщений: 24

Suxrob89-спс тебе...

Создавать темы 01-Янв-2014 03:08

[Профиль]  [ЛС] 

ILHOMXXX

Стаж: 7 лет 1 месяц

Сообщений: 24

Симпатии: 3

так уж быть отпишусь,, фильм так себе среднечёк на 3+

Создавать темы 04-Янв-2014 21:08

[Профиль]  [ЛС] 
Показать сообщения:    
Ответить на тему

Текущее время: 22-Авг 14:21

Часовой пояс: UTC + 5



Вы не можете начинать темы
Вы не можете отвечать на сообщения
Вы не можете редактировать свои сообщения
Вы не можете удалять свои сообщения
Вы не можете голосовать в опросах
Вы не можете прикреплять файлы к сообщениям
Вы не можете скачивать файлы