Она хочет меня / She Wants Me (Роб Марголис) [2012 г., комедия,, HDRip]

Ответить на тему
 

igor1968 ®

Стаж: 5 лет 7 месяцев

Сообщений: 366

Симпатии: 197

Она хочет меня / She Wants Me«He has the chance of a lifetime... Who would you choose?» Год выпуска: 2012
Страна:
Жанр: комедия,
Продолжительность: 01:26:57.208
Перевод: Профессиональный (многоголосый, закадровый)
Режиссер: Роб Марголис
В ролях: Джош Гад
Кристен Рулин
Хилари Дафф
Чарли Шин
Аарон Йу
Дебра Джо Рапп
Уэйн Найт
Джонни Месснер
Мелони Диаз
Бритт Морган
...
Известная актриса жаждет заполучить роль в новом проекте сценариста-неврастеника по имени Сэм. Но Сэм уже пообещал эту роль своей девушке, начинающей актрисе Сэмми. Теперь герой встает перед сложным выбором, кого из женщин предпочесть.- -премьера
5 апреля 2012, ...-Качество: HDRip
Формат: AVI
Видео кодек: XviD
Аудио кодек: MPEG Audio
Видео: 640x352 (1.82:1), 24 fps, XviD build 50 ~988 kbps avg, 0.18 bit/pixel
Аудио: 48 kHz, MPEG Layer 3, 2 ch, ~128.00 kbps avg-

MediaInfo

General
Complete name : Ona.ho4et.menya.2012.P.HDRip.700Mb.avi
Format : AVI
Format/Info : Audio Video Interleave
File size : 701 MiB
Duration : 1h 26mn
Overall bit rate : 1 126 Kbps
Writing application : VirtualDubMod 1.5.10.2 (build 2540/release)
Writing library : VirtualDubMod build 2540/release
Video
ID : 0
Format : MPEG-4 Visual
Format profile : Advanced [email protected]
Format settings, BVOP : Yes
Format settings, QPel : No
Format settings, GMC : No warppoints
Format settings, Matrix : Default (MPEG)
Codec ID : XVID
Codec ID/Hint : XviD
Duration : 1h 26mn
Bit rate : 989 Kbps
Width : 640 pixels
Height : 352 pixels
Display aspect ratio : 16:9
Frame rate : 24.000 fps
Color space : YUV
Chroma subsampling : 4:2:0
Bit depth : 8 bits
Scan type : Progressive
Compression mode : Lossy
Bits/(Pixel*Frame) : 0.183
Stream size : 615 MiB (88%)
Writing library : XviD 1.2.1 (UTC 2008-12-04)
Audio
ID : 1
Format : MPEG Audio
Format version : Version 1
Format profile : Layer 3
Mode : Joint stereo
Mode extension : MS Stereo
Codec ID : 55
Codec ID/Hint : MP3
Duration : 1h 26mn
Bit rate mode : Constant
Bit rate : 128 Kbps
Channel count : 2 channels
Sampling rate : 48.0 KHz
Compression mode : Lossy
Stream size : 79.6 MiB (11%)
Alignment : Aligned on interleaves
Interleave, duration : 42 ms (1.00 video frame)
Interleave, preload duration : 504 ms
-

Скриншоты

- -

Создавать темы 30-Дек-2013 13:28

[Профиль]  [ЛС] 
Показать сообщения:    
Ответить на тему

Текущее время: 19-Окт 08:51

Часовой пояс: UTC + 5



Вы не можете начинать темы
Вы не можете отвечать на сообщения
Вы не можете редактировать свои сообщения
Вы не можете удалять свои сообщения
Вы не можете голосовать в опросах
Вы не можете прикреплять файлы к сообщениям
Вы не можете скачивать файлы