Пингвиний барабан / Mawaru Penguindrum / Mawaru Penguin Drum (Икухара Кунихико) [TV] [24 из 24] [без хардсаба] [RUS(ext), JAP+SUB] [2011 г., комедия, повседневность, драма, BDRip] [720p]

Ответить на тему
 

MeiDoCorpse ®

Стаж: 4 года 3 месяца

Сообщений: 222

Симпатии: 14

- Год выпуска: 2011
Страна: Япония
Жанр: комедия, повседневность, драма
Продолжительность: ТВ | 24 эп. по 25 мин.-Режиссёр: Икухара Кунихико
Сценарий: Икухара Кунихико
Студия: Brains Base-Описание:
Для близнецов Такакура потянулось тяжкое время – по приговору врачей их сестренке Химари осталось жить считанные месяцы. Понятно, что братья-старшеклассники Канба и Сёма ценили каждый день вместе и были готовы выполнить любое желание сестры, к примеру, сходить на экскурсию в океанариум. Там Химари и умерла от опухоли мозга. А потом глазам убитых горем ребят предстало чудо: на голове девушки оказалась купленная в сувенирной лавке шляпа в виде пингвина, которая… воскресила их сестру! Под охи и ахи докторов ребята улизнули из больницы, от души отпраздновали и лишь потом поняли, что за все приходится платить…
Теперь стоит Химари надеть Шляпу (которую, кстати, зовут Стратегия Выживания), как милая и солнечная девушка превращается в холодную красавицу и мастерицу иллюзий. За поддержание жизни сестры это существо требует от Канбы и Сёмы найти и доставить таинственный Пингвиний Барабан, иначе выживание, видимо, не состоится. Для помощи в поисках и в целом, хозяйка Шляпы выделила троих пингвинов – мастеров на все руки, видеть которых могут лишь члены семьи Такакура. Когда братья активно приступили к поискам, сверхъестественная гостья даже назвала хозяйку Барабана, только не сказала главного – что это такое и как он хотя бы выглядит. Да это и не важно, главное – мотивация!
© Hollow, World Art-Информационные ссылки: AniDB || World Art || MAL-Качество: BDRip
Энкод: Winter
Контейнер: mkv
Тип видео: Без хардсаба
Наличие линковки: Нет
Видео: x264 (Hi10p), 1280x720, ~2500 Kbps, 23.976 fps
Аудио: Japanese, Vorbis, 48000Hz, ~256 Kbps, 2ch, в составе контейнера
Аудио: Russian, AC3, 48000Hz, ~192 Kbps, 2ch, внешними файлами | Lupin & Say
Субтитры: Russian, ASS, внешними файлами | Antravoco-

Список эпизодов

01. The Bell of Fate Rings
02. Risky Survival Strategy
03. Then Devour Me Courageously
04. Descension of a Princess
05. That`s Why I Do That
06. You & I Are Connected by M
07. Tamahomare Girl
08. Even If Your Love Is a Lie...
09. The World of Ice
10. Because I Love Him
11. You Have Finally Realized It
12. The Wheel That Spins Us Round
13. Our Crime & Punishment
14. Princess of Lies
15. Saving the World
16. Immortal Man
17. Those Who Cannot Be Forgiven
18. So, I Want You to Be Here for My Sake
19. My Fated Person
20. Thank You for Choosing Me
21. The Door of Fate We Choose
22. Beautiful Casket
23. Fate`s Destination
24. I Love You

Скриншоты

Подробные тех. данные

General
Unique ID : 203705165534969275852599914089214811274 (0x994030148387C97C815A6ADE5F169C8A)
Complete name : E:\Mawaru Penguindrum [BD] [720p]\[Winter] Mawaru Penguindrum 01 [BDrip 1280x720 x264 Vorbis].mkv
Format : Matroska
Format version : Version 2
File size : 487 MiB
Duration : 23mn 41s
Overall bit rate mode : Variable
Overall bit rate : 2 873 Kbps
Encoded date : UTC 2013-02-01 05:05:16
Writing application : mkvmerge v2.9.8 ('C'est le bon') built on Aug 13 2009 12:49:06
Writing library : libebml v0.7.7 + libmatroska v0.8.1
Video
ID : 1
Format : AVC
Format/Info : Advanced Video Codec
Format profile : High [email protected]
Format settings, CABAC : Yes
Format settings, ReFrames : 9 frames
Codec ID : V_MPEG4/ISO/AVC
Duration : 23mn 41s
Bit rate : 2 559 Kbps
Width : 1 280 pixels
Height : 720 pixels
Display aspect ratio : 16:9
Frame rate mode : Constant
Frame rate : 23.976 fps
Color space : YUV
Chroma subsampling : 4:2:0
Bit depth : 10 bits
Scan type : Progressive
Bits/(Pixel*Frame) : 0.116
Stream size : 434 MiB (89%)
Writing library : x264 core 125 r2200 999b753
Encoding settings : cabac=1 / ref=9 / deblock=1:-2:-2 / analyse=0x3:0x133 / me=umh / subme=9 / psy=1 / psy_rd=0.90:0.00 / mixed_ref=1 / me_range=24 / chroma_me=1 / trellis=2 / 8x8dct=1 / cqm=0 / deadzone=21,11 / fast_pskip=1 / chroma_qp_offset=-2 / threads=6 / lookahead_threads=1 / sliced_threads=0 / nr=0 / decimate=0 / interlaced=0 / bluray_compat=0 / constrained_intra=0 / bframes=8 / b_pyramid=2 / b_adapt=2 / b_bias=0 / direct=1 / weightb=1 / open_gop=0 / weightp=2 / keyint=250 / keyint_min=23 / scenecut=40 / intra_refresh=0 / rc=crf / mbtree=0 / crf=15.9 / qcomp=0.70 / qpmin=9 / qpmax=40 / qpstep=4 / ip_ratio=1.40 / pb_ratio=1.30 / aq=1:0.90
Default : No
Forced : No
Audio
ID : 2
Format : Vorbis
Format settings, Floor : 1
Codec ID : A_VORBIS
Duration : 23mn 41s
Bit rate mode : Variable
Bit rate : 256 Kbps
Channel count : 2 channels
Sampling rate : 48.0 KHz
Compression mode : Lossy
Stream size : 43.4 MiB (9%)
Writing library : libVorbis (Omnipresent) (20120203 (Omnipresent))
Language : Japanese
Default : Yes
Forced : No


Последний раз редактировалось: MeiDoCorpse (2014-01-17 08:50), всего редактировалось 1 раз

Создавать темы 31-Дек-2013 07:13

[Профиль]  [ЛС] 

Alex_38

Стаж: 5 лет 5 месяцев

Сообщений: 336

Симпатии: 37

MeiDoCorpse, ТРСМ снова пашет?)

Создавать темы 31-Дек-2013 10:27

[Профиль]  [ЛС] 

MeiDoCorpse ®

Стаж: 4 года 3 месяца

Сообщений: 222

Симпатии: 14

Alex_38, теперь РТОР

Создавать темы 31-Дек-2013 10:28

[Профиль]  [ЛС] 

Alex_38

Стаж: 5 лет 5 месяцев

Сообщений: 336

Симпатии: 37

MeiDoCorpse, уре) это ведь еще круче) сможешь перезалить старые анимешки которые у тебя есть?)

Создавать темы 31-Дек-2013 11:10

[Профиль]  [ЛС] 

MeiDoCorpse ®

Стаж: 4 года 3 месяца

Сообщений: 222

Симпатии: 14

уре) это ведь еще круче)
не круче...
сможешь перезалить старые анимешки которые у тебя есть?
посмотрим... не обещаю

Создавать темы 31-Дек-2013 12:13

[Профиль]  [ЛС] 
Показать сообщения:    
Ответить на тему

Текущее время: 19-Авг 00:58

Часовой пояс: UTC + 5



Вы не можете начинать темы
Вы не можете отвечать на сообщения
Вы не можете редактировать свои сообщения
Вы не можете удалять свои сообщения
Вы не можете голосовать в опросах
Вы не можете прикреплять файлы к сообщениям
Вы не можете скачивать файлы