Погнали! / Getaway ( Кортни Соломон ) [2013 г., Боевик, Криминал, HDRip ] [iTunes]

Ответить на тему
 

Suxrob89 ®

Стаж: 7 лет 4 месяца

Сообщений: 933

Симпатии: 564

- -Погнали! / Getaway-«Get in. Get out. Getaway»- Год выпуска: 2013
Производство: США, Болгария / Dark Castle Entertainment, AfterDark Films, Warner Brothers
Жанр: Боевик, Криминал
Перевод: Многоголосый закадровый, профессиональный (iTunes Russia)
Субтитры: Отсутствуют
Продолжительность: 01:30:04-Дата мировой премьеры: 26 августа 2013
Дата российской премьеры: 14 ноября 2013, «Каро-Премьер»
Дата выхода DVD/Blu-Ray релиза: 23 января 2014, «CP Дистрибуция»-Режиссер: Кортни Соломон
Продюсер: Моше Дайамант, Кристофер Милбёрн, Кортни Соломон
Актеры: Итан Хоук, Селена Гомес, Джон Войт, Ребекка Бьюдиг, Пол Фримен, Брюс Пэйн, Ивайло Герасков, Димо Алексиев, Велислав Павлов, Деян Ангелов-Описание фильма: Бывшему гонщику Бренту приходится сесть за руль и следовать указаниям таинственного человека, чтобы спасти свою похищенную жену.- -Качество: HDRip
Формат: AVI
Видео: XviD, 1779 kb/s, 720 x 304
Аудио: Russian AC3, 384 kb/s (6 ch)

Media info

General
Complete name                  : Getaway.2013.HDRip.1400MB.avi
Format                         : AVI
Format/Info                    : Audio Video Interleave
File size                      : 1.37 GiB
Duration                       : 1h 30mn
Overall bit rate               : 2 172 Kbps
Writing application            : VirtualDubMod 1.5.10.3 | www.virtualdub-fr.org || (build 2550/release)
Writing library                : VirtualDubMod build 2550/release
Video
ID                             : 0
Format                         : MPEG-4 Visual
Format profile                 : Advanced [email protected]
Format settings, BVOP          : Yes
Format settings, QPel          : No
Format settings, GMC           : No warppoints
Format settings, Matrix        : Custom
Codec ID                       : XVID
Codec ID/Hint                  : XviD
Duration                       : 1h 30mn
Bit rate                       : 1 779 Kbps
Width                          : 720 pixels
Height                         : 304 pixels
Display aspect ratio           : 2.35:1
Frame rate                     : 23.976 fps
Color space                    : YUV
Chroma subsampling             : 4:2:0
Bit depth                      : 8 bits
Scan type                      : Progressive
Compression mode               : Lossy
Bits/(Pixel*Frame)             : 0.339
Stream size                    : 1.12 GiB (82%)
Writing library                : XviD 1.2.1 (UTC 2008-12-04)
Audio
ID                             : 1
Format                         : AC-3
Format/Info                    : Audio Coding 3
Mode extension                 : CM (complete main)
Format settings, Endianness    : Big
Codec ID                       : 2000
Duration                       : 1h 30mn
Bit rate mode                  : Constant
Bit rate                       : 384 Kbps
Channel(s)                     : 6 channels
Channel positions              : Front: L C R, Side: L R, LFE
Sampling rate                  : 48.0 KHz
Bit depth                      : 16 bits
Compression mode               : Lossy
Stream size                    : 247 MiB (18%)
Alignment                      : Split accross interleaves
Interleave, duration           : 42 ms (1.00 video frame)
Interleave, preload duration   : 500 ms

Скриншот с названием фильма

Скриншоты

Создавать темы 31-Дек-2013 07:51

[Профиль]  [ЛС] 

naruto_shippuden

Стаж: 5 лет 6 месяцев

Сообщений: 113

Симпатии: 3

JAMIK, Перевод: Многоголосый закадровый, профессиональный (iTunes Russia)

Создавать темы 31-Дек-2013 15:01

[Профиль]  [ЛС] 

Catapult

Стаж: 4 года 8 месяцев

Сообщений: 7

Симпатии: 1

иза селены низкий рейтинг

Создавать темы 31-Дек-2013 15:20

[Профиль]  [ЛС] 

Asadovdiyor

Стаж: 5 лет 11 месяцев

Сообщений: 192

иза селены низкий рейтинг
а благодаря Shelby GT500 SuperSnake рейтинг не упал до 0 )))

Создавать темы 31-Дек-2013 17:33

[Профиль]  [ЛС] 

Furqat_76

Стаж: 5 лет 7 месяцев

Сообщений: 24

спс.. автору..супер..+5

Создавать темы 01-Янв-2014 03:04

[Профиль]  [ЛС] 

devill

Стаж: 6 лет 6 месяцев

Сообщений: 23

скорость добавьте люди

Создавать темы 06-Янв-2014 11:17

[Профиль]  [ЛС] 

colossuss

Стаж: 5 лет 1 месяц

Сообщений: 27

омг

Создавать темы 08-Янв-2014 15:53

[Профиль]  [ЛС] 

cuban

Стаж: 5 лет 9 месяцев

Сообщений: 41

Симпатии: 2

Посмотрел данный фильм, идея не плохая, но замечал не однократно киноляпы и бредовые моменты)

Создавать темы 29-Янв-2014 22:51

[Профиль]  [ЛС] 

Don_OmaR

Стаж: 5 лет 9 месяцев

Сообщений: 90

Симпатии: 5

А Селена Гомез Повзрослела.

Создавать темы 29-Янв-2014 22:53

[Профиль]  [ЛС] 

outoforder

Стаж: 5 лет

Сообщений: 812

Симпатии: 172

хах чего стоит только взрывающаяся электростанция mm. Экшона становится столько, что больше похоже на пародию. Любителям бессмысленных автоаварий посвящается hh

Создавать темы 23-Мар-2014 22:12

[Профиль]  [ЛС] 
Показать сообщения:    
Ответить на тему

Текущее время: 15-Дек 05:31

Часовой пояс: UTC + 5



Вы не можете начинать темы
Вы не можете отвечать на сообщения
Вы не можете редактировать свои сообщения
Вы не можете удалять свои сообщения
Вы не можете голосовать в опросах
Вы не можете прикреплять файлы к сообщениям
Вы не можете скачивать файлы