Курьер из «Рая» (Михаил Хлебородов) [2013 г., комедия, приключения, WEB-DLRip]

Ответить на тему
 

igor1968 ®

Стаж: 5 лет 6 месяцев

Сообщений: 366

Симпатии: 197

Курьер из «Рая»«Рай есть!» Год выпуска: 2013
Жанр: комедия, приключения
Продолжительность: 01:32:26.712
Режиссер: Михаил Хлебородов
В ролях: Евгений Ткачук
Елизавета Боярская
Гоша Куценко
Дмитрий Дюжев
Игорь Скляр
Дмитрий Нагиев
Артем Ткаченко
Екатерина Климова
Екатерина Федулова
Олег Тактаров
...
Егор Глазунов работает в криминальной полиции столицы и обладает удивительным даром — «врать с листа». Это умение очень выручает его в далёком маленьком городе, которых на карте России великое множество. Сюда Глазунов отправляется помочь другу детства Артёму — обычному курьеру с необычными принципами, у которого угнали доставшийся ему по странному стечению обстоятельств «Мерседес». Все следы ведут к местному авторитету, подобраться к которому невозможно. Последний шанс — прийти с «проверкой» из «следственного комитета». Сюжет гоголевского «Ревизора» превращается в историю новой России.- -премьера
27 ноября 2013, ...
премьера
28 ноября 2013, «WDSSPR»-Качество: WEB-DLRip
Формат: AVI
Видео кодек: XviD
Аудио кодек: AC3
Видео: 720x304 (2.37:1), 24.000 fps, XviD build 73 ~1724 kbps avg, 0.33 bit/pixel
Аудио: 48 kHz, AC3 Dolby Digital, 3/2 (L,C,R,l,r) + LFE ch, ~384.00 kbps avg-

MediaInfo

General
Complete name : Kuryer.iz.Raja.2013.O.WEB-DLRip.1400MB.avi
Format : AVI
Format/Info : Audio Video Interleave
File size : 1.37 GiB
Duration : 1h 32mn
Overall bit rate : 2 118 Kbps
Writing application : VirtualDubMod 1.5.10.3 | www.virtualdub-fr.org || (build 2550/release)
Writing library : VirtualDubMod build 2550/release
Video
ID : 0
Format : MPEG-4 Visual
Format profile : Advanced [email protected]
Format settings, BVOP : Yes
Format settings, QPel : No
Format settings, GMC : No warppoints
Format settings, Matrix : Default (H.263)
Codec ID : XVID
Codec ID/Hint : XviD
Duration : 1h 32mn
Bit rate : 1 724 Kbps
Width : 720 pixels
Height : 304 pixels
Display aspect ratio : 2.35:1
Frame rate : 24.000 fps
Color space : YUV
Chroma subsampling : 4:2:0
Bit depth : 8 bits
Scan type : Progressive
Compression mode : Lossy
Bits/(Pixel*Frame) : 0.328
Stream size : 1.11 GiB (81%)
Writing library : XviD 73
Audio
ID : 1
Format : AC-3
Format/Info : Audio Coding 3
Mode extension : CM (complete main)
Format settings, Endianness : Big
Codec ID : 2000
Duration : 1h 32mn
Bit rate mode : Constant
Bit rate : 384 Kbps
Channel count : 6 channels
Channel positions : Front: L C R, Side: L R, LFE
Sampling rate : 48.0 KHz
Bit depth : 16 bits
Compression mode : Lossy
Stream size : 254 MiB (18%)
Alignment : Split accross interleaves
Interleave, duration : 42 ms (1.00 video frame)
Interleave, preload duration : 500 ms
-

Скриншоты

- - -

Создавать темы 31-Дек-2013 14:03

[Профиль]  [ЛС] 

NetLord

Стаж: 6 лет 4 месяца

Сообщений: 28

Симпатии: 8

Первый скрин точно из этого фильма?

Создавать темы 01-Янв-2014 12:01

[Профиль]  [ЛС] 

igor1968 ®

Стаж: 5 лет 6 месяцев

Сообщений: 366

Симпатии: 197

Первый скрин точно из этого фильма?
Скачай и посмотри!

Создавать темы 01-Янв-2014 12:26

[Профиль]  [ЛС] 

Lida

Стаж: 4 года 8 месяцев

Сообщений: 2

У меня фильм не грузится почему-то...уже 20 минут стоит на загрузки и всё 0% показывает

Создавать темы 01-Янв-2014 20:27

[Профиль]  [ЛС] 

халит

Стаж: 7 лет 3 месяца

Сообщений: 12

Симпатии: 1

зачетный фильмец)))особенно концовка!!!!!!

Создавать темы 04-Янв-2014 22:00

[Профиль]  [ЛС] 

vanik

Стаж: 3 года 8 месяцев

Сообщений: 10

не качает((((

Создавать темы 06-Янв-2014 17:30

[Профиль]  [ЛС] 

Per4ik

Стаж: 3 года 11 месяцев

Сообщений: 11

Симпатии: 3

не уходим с раздачи

Создавать темы 13-Янв-2014 22:43

[Профиль]  [ЛС] 

RobinHood

Стаж: 4 года 8 месяцев

Сообщений: 4

Первый скрин точно из этого фильма?
Скачай и посмотри!
просто ответить нельзя? Слишком дерзкий чтоли?
Не нарывайся!

Создавать темы 23-Янв-2014 13:12

[Профиль]  [ЛС] 
Показать сообщения:    
Ответить на тему

Текущее время: 24-Сен 15:30

Часовой пояс: UTC + 5



Вы не можете начинать темы
Вы не можете отвечать на сообщения
Вы не можете редактировать свои сообщения
Вы не можете удалять свои сообщения
Вы не можете голосовать в опросах
Вы не можете прикреплять файлы к сообщениям
Вы не можете скачивать файлы