Принц Извращенности и Несмеющаяся Кошка / Hentai Ouji to Warawanai Neko. (Судзуки Ёхэй) [TV] [без хардсаба] [12 из 12] [RUS(ext), JAP+SUB] [2013 г., комедия, романтика, школа, BDRip] [720p]

Ответить на тему
 

MeiDoCorpse ®

Стаж: 4 года 5 месяцев

Сообщений: 222

Симпатии: 14

- Год выпуска: 2013
Страна: Япония
Жанр: комедия, романтика, школа
Продолжительность: ТВ | 12 эп. по 25 мин.-Режиссёр: Судзуки Ёхэй
Сценарий: Сагара Со
Студия: J.C. Staff-Описание:
Старшеклассник Ёто Ёкодэра, переживающий лучшее время жизни, решил, что пора избавляться от ложной скромности, ибо что естественно, то не безобразно. С этой целью парень пошел ночью на заветный холм, где под одиноким кедром стояла кошачья статуя, по легенде исполняющая желания. Тут и случились две вещи: во-первых, Ёта познакомился с попавшей в схожую ситуацию симпатичной Цукико Цукикакуси, во-вторых, понял, что желания каменный кот исполняет, но как-то по-своему, и лучше бы они с новой подругой вообще ничего не загадывали!
Что ж, ошибки надо исправлять, и если для этого придется очаровать местную задаваку Адзусу Адзуки, заработать славу «принца извращений» и претерпеть гнев Стальной Королевы, президента клуба легкой атлетики - значит, быть по сему! Во всем есть оборотная сторона – слава есть слава, поклонница есть поклонница, а Королева оказалась старшей сестрой милой Цукико, при этом девушкой с такими закидонами, что Ёкодэре еще расти и расти. Вот только с каждым добрым делом клубок взаимоотношений запутывается еще больше – а зловредный котяра только улыбается!
© Hollow, World Art-Cсылки: Официальная страница || AniDB || World Art || MAL
Рейтинг: 8.0 из 10 (W-A) || 7.11 (1098) (AniDB) || 7.661 (scored by 38667 users) (MAL)-Качество: BDRip
Энкод: Winter
Контейнер: mkv
Тип видео: Без хардсаба
Наличие линковки: Нет
Видео: x264 (Hi10p), 1280x720, ~2400 Kbps, 23.976 fps
Аудио: Japanese, Vorbis, 48000Hz, ~256 Kbps, 2ch, в составе контейнера
Аудио: Russian, AC3, 48000Hz, ~192 Kbps, 2ch, внешними файлами | BalFor & Трина Дубовицкая
Субтитры: Russian, ASS, внешними файлами | Xardos & Eugene & Cpt. Mal & Jemdo-

Список эпизодов

01. Hentai-san and the Stony Cat
02. Fairy-san Doesn`t Get Angry
03. Speak Before Getting Sad
04. How to Defeat the Carefree King
05. Goodbye, My Home
06. Welcome, My Friend
07. Someday My Family
08. 100% Girl
09. The Lucky Prince
10. To Have Felt the Longest
11. Inside Tsutsukakushi-san`s House
12. Outside the Memory with the Hentai Prince

Скриншоты

Подробные тех. данные

General
Unique ID : 208900769976821747672733452691857063513 (0x9D28D32815A28BD0BF1F7E6A6E11BE59)
Complete name : D:\Anime\Hentai Ouji to Warawanai Neko [BD] [720p]\[Winter] Hentai Ouji to Warawanai Neko 01 [BDrip 1280x720 x264 Vorbis].mkv
Format : Matroska
Format version : Version 2
File size : 528 MiB
Duration : 25mn 11s
Overall bit rate mode : Variable
Overall bit rate : 2 929 Kbps
Encoded date : UTC 2013-07-03 15:41:19
Writing application : mkvmerge v2.9.8 ('C'est le bon') built on Aug 13 2009 12:49:06
Writing library : libebml v0.7.7 + libmatroska v0.8.1
Video
ID : 1
Format : AVC
Format/Info : Advanced Video Codec
Format profile : High [email protected]
Format settings, CABAC : Yes
Format settings, ReFrames : 9 frames
Codec ID : V_MPEG4/ISO/AVC
Duration : 25mn 11s
Bit rate : 2 615 Kbps
Width : 1 280 pixels
Height : 720 pixels
Display aspect ratio : 16:9
Frame rate mode : Constant
Frame rate : 23.976 fps
Color space : YUV
Chroma subsampling : 4:2:0
Bit depth : 10 bits
Scan type : Progressive
Bits/(Pixel*Frame) : 0.118
Stream size : 471 MiB (89%)
Writing library : x264 core 125 r2200 999b753
Encoding settings : cabac=1 / ref=9 / deblock=1:-2:-2 / analyse=0x3:0x133 / me=umh / subme=9 / psy=1 / psy_rd=0.90:0.00 / mixed_ref=1 / me_range=24 / chroma_me=1 / trellis=2 / 8x8dct=1 / cqm=0 / deadzone=21,11 / fast_pskip=1 / chroma_qp_offset=-2 / threads=6 / lookahead_threads=1 / sliced_threads=0 / nr=0 / decimate=0 / interlaced=0 / bluray_compat=0 / constrained_intra=0 / bframes=8 / b_pyramid=2 / b_adapt=2 / b_bias=0 / direct=1 / weightb=1 / open_gop=0 / weightp=2 / keyint=250 / keyint_min=23 / scenecut=40 / intra_refresh=0 / rc=crf / mbtree=0 / crf=15.7 / qcomp=0.70 / qpmin=9 / qpmax=42 / qpstep=4 / ip_ratio=1.40 / pb_ratio=1.30 / aq=1:0.90
Default : No
Forced : No
Audio
ID : 2
Format : Vorbis
Format settings, Floor : 1
Codec ID : A_VORBIS
Duration : 25mn 11s
Bit rate mode : Variable
Bit rate : 256 Kbps
Channel count : 2 channels
Sampling rate : 48.0 KHz
Compression mode : Lossy
Stream size : 46.1 MiB (9%)
Writing library : libVorbis (Schaufenugget) (20101101 (Schaufenugget))
Language : Japanese
Default : Yes
Forced : No


Последний раз редактировалось: MeiDoCorpse (2014-01-03 23:05), всего редактировалось 1 раз

Создавать темы 03-Янв-2014 08:34

[Профиль]  [ЛС] 

Yagami Light

Стаж: 6 лет 6 месяцев

Сообщений: 140

MeiDoCorpse, юморист:)

Создавать темы 03-Янв-2014 08:53

[Профиль]  [ЛС] 

Slapper

Стаж: 3 года 11 месяцев

Сообщений: 2193

Симпатии: 213

ты думаешь здесь Хентай проверят ? :D

Создавать темы 03-Янв-2014 09:08

[Профиль]  [ЛС] 

Timikkk

Стаж: 5 лет 8 месяцев

Сообщений: 18

ты думаешь здесь Хентай проверят ? :D
Это не хентай td

Создавать темы 03-Янв-2014 09:30

[Профиль]  [ЛС] 

SHAGGY

Стаж: 4 года 2 месяца

Сообщений: 9

Не хентай это)) Извращённый этти ))

Создавать темы 03-Янв-2014 10:24

[Профиль]  [ЛС] 

XaHTep

Стаж: 4 года 9 месяцев

Сообщений: 210

Симпатии: 6

И этти тоже не назовешь, лишь название немного извращенное! А так очень забавная анимешка и концовка с небольшой драмой.

Создавать темы 03-Янв-2014 11:36

[Профиль]  [ЛС] 

GENMUTAT

Стаж: 5 лет 9 месяцев

Сообщений: 18

Симпатии: 11

не фига не драматичное глав герой МУЖИК всё сделал так как не сделалибы другие лохавские глав герои...анимешка потраясная жду второго сезона оч жду.....
PS: спс автору раздачи что выложил....

Создавать темы 03-Янв-2014 12:07

[Профиль]  [ЛС] 

SvetiKKK2013

Стаж: 4 года 4 месяца

Сообщений: 23

а как сделать так что бы можно было смотреть с озвучкой? а то на японском у мну ток(( даже без субтитров

Создавать темы 14-Мар-2014 20:56

[Профиль]  [ЛС] 
Показать сообщения:    
Ответить на тему

Текущее время: 21-Окт 17:19

Часовой пояс: UTC + 5



Вы не можете начинать темы
Вы не можете отвечать на сообщения
Вы не можете редактировать свои сообщения
Вы не можете удалять свои сообщения
Вы не можете голосовать в опросах
Вы не можете прикреплять файлы к сообщениям
Вы не можете скачивать файлы