Невероятная жизнь Уолтера Митти / The Secret Life of Walter Mitty (Бен Стиллер) [2013 г., фэнтези, драма, комедия, приключения, WEB-DLRip] MVO

Ответить на тему
 

Suxrob89 ®

Стаж: 7 лет

Сообщений: 933

Симпатии: 564

-Невероятная жизнь Уолтера Митти / The Secret Life of Walter Mitty- Выпущено: США / 20th Century Fox Film Corporation, Red House Entertainment
Год выпуска: 2013
Жанр: фэнтези, драма, комедия, приключения
Продолжительность: 01:40:37
Озвучивание: Профессиональный (многоголосый) [Baibako]-Режиссер: Бен Стиллер-В ролях: Бен Стиллер,Кристен Уиг, Джон Дэйли, Кэтрин Хан, Теренс Берни Хайнс, Адам Скотт, Пол Фицджералд, Грэйс Рекс, Алекс Анфанджер, Аманда Нафтон-О фильме: Кто сказал, что в сердце маленького человека не могут жить великие мечты? Даже скромному и незаметному служащему хочется иногда совершить пусть безумные, но геройские поступки, поверить в свою силу и мужество. Почему всех спасать должны исключительно супермены?- -Дата мировой премьеры: 5 октября 2013
Дата российской премьеры: 1 января 2014, «Двадцатый Век Фокс СНГ»
Дата выхода DVD релиза: 3 апреля 2014, «Двадцатый Век Фокс СНГ»-Качество: WEB-DLRip [Рип с WEB-DL 720p]
Формат: AVI
Видео: Xvid, 1567 Кбит/сек, 720x304, 23,976 кадра/сек
Аудио: AC3, 128 Кбит/с, 2 канала, 48,0 КГц

Media info

Общее
Полное имя                               : Neveroyatnaya.Jizni.Uoltera.Mitty.2013.P.WEB-DLRip.1400MB.avi
Формат                                   : AVI
Формат/Информация                        : Audio Video Interleave
Размер файла                             : 1,37 Гбайт
Продолжительность                        : 1 ч. 54 м.
Общий поток                              : 1705 Кбит/сек
Программа кодирования                    : VirtualDubMod 1.5.10.2 (build 2540/release)
Библиотека кодирования                   : VirtualDubMod build 2540/release
Видео
Идентификатор                            : 0
Формат                                   : MPEG-4 Visual
Профиль формата                          : Advanced [email protected]
Параметр BVOP формата                    : 2
Параметр QPel формата                    : Нет
Параметр GMC формата                     : Без точки перехода
Параметр матрицы формата                 : Выборочная
Идентификатор кодека                     : XVID
Идентификатор кодека/Подсказка           : XviD
Продолжительность                        : 1 ч. 54 м.
Битрейт                                  : 1567 Кбит/сек
Ширина                                   : 720 пикселей
Высота                                   : 304 пикселя
Соотношение сторон                       : 2,35:1
Частота кадров                           : 23,976 кадра/сек
Цветовое пространство                    : YUV
Субдискретизация насыщенности            : 4:2:0
Битовая глубина                          : 8 бит
Тип развёртки                            : Прогрессивная
Метод сжатия                             : С потерями
Бит/(Пиксели*Кадры)                      : 0.299
Размер потока                            : 1,26 Гбайт (92%)
Библиотека кодирования                   : XviD 1.2.1 (UTC 2008-12-04)
Аудио
Идентификатор                            : 1
Формат                                   : AC-3
Формат/Информация                        : Audio Coding 3
Расширение режима                        : CM (complete main)
Параметр Endianness формата              : Big
Идентификатор кодека                     : 2000
Продолжительность                        : 1 ч. 54 м.
Вид битрейта                             : Постоянный
Битрейт                                  : 128 Кбит/сек
Каналы                                   : 2 канала
Расположение каналов                     : Front: L R
Частота                                  : 48,0 КГц
Битовая глубина                          : 16 бит
Метод сжатия                             : С потерями
Размер потока                            : 105 Мбайт (8%)
Выравнивание                             : Разделение по промежуткам
Продолжительность промежутка             : 42  мс. (1,00 видеокадр)
Время предзагрузки промежутка            : 500  мс.

Скриншоты

Скриншоты



Последний раз редактировалось: Suxrob89 (2014-03-23 06:02), всего редактировалось 2 раз(а)

Создавать темы 03-Янв-2014 21:51

[Профиль]  [ЛС] 

olim5631

Стаж: 4 года 6 месяцев

Сообщений: 120

Симпатии: 1

судя по рейтингу фильм неплохой и стоит просмостра

Создавать темы 03-Янв-2014 22:34

[Профиль]  [ЛС] 

maestro25

Стаж: 5 лет 7 месяцев

Сообщений: 29

Симпатии: 2

фильм класс по трейлеру, но все таки ждем лицухы

Создавать темы 03-Янв-2014 22:45

[Профиль]  [ЛС] 

Иви

Стаж: 5 лет 7 месяцев

Сообщений: 688

Симпатии: 65

шапку подправил

Создавать темы 03-Янв-2014 22:48

[Профиль]  [ЛС] 

badya

Стаж: 7 лет 1 месяц

Сообщений: 14

фильм класс

Создавать темы 24-Янв-2014 14:25

[Профиль]  [ЛС] 

Yuka

Стаж: 4 года 11 месяцев

Сообщений: 4

не качайте, снято в кинотеатре((

Создавать темы 14-Фев-2014 21:29

[Профиль]  [ЛС] 

Abraham_Linkoln

Стаж: 3 года 10 месяцев

Сообщений: 17

а когда лицензия будет ?

Комментарий от Grock


В начале апреля

Создавать темы 02-Мар-2014 20:05

[Профиль]  [ЛС] 

Maksimum02

Стаж: 4 года 7 месяцев

Сообщений: 35

Симпатии: 1

качество грустное!

Создавать темы 04-Мар-2014 08:26

[Профиль]  [ЛС] 

-SA-

Стаж: 5 лет 7 месяцев

Сообщений: 61

Симпатии: 2

надеюсь звук хороший) спасибо

Создавать темы 23-Мар-2014 15:28

[Профиль]  [ЛС] 
Показать сообщения:    
Ответить на тему

Текущее время: 20-Авг 10:45

Часовой пояс: UTC + 5



Вы не можете начинать темы
Вы не можете отвечать на сообщения
Вы не можете редактировать свои сообщения
Вы не можете удалять свои сообщения
Вы не можете голосовать в опросах
Вы не можете прикреплять файлы к сообщениям
Вы не можете скачивать файлы