Первый канал (ТВ) / A Channel: The Animation (Оно Манабу) [TV+Special] [12+11 из 12+11] [без хардсаба] [RUS(ext), JAP+SUB] [2011 г., комедия, повседневность, школа, BDRip] [720p]

Ответить на тему
 

MeiDoCorpse ®

Стаж: 4 года 3 месяца

Сообщений: 222

Симпатии: 14

- Год выпуска: 2011
Страна: Япония
Жанр: комедия, повседневность, школа
Продолжительность: ТВ | 12 эп. по 25 мин.-Режиссёр: Оно Манабу
Автор оригинала: Курода BB
Студия: Studio Gokumi-Описание:
В средней школе Рун и Тору были почти неразлучны, но разница в один класс привела к тому, что, с поступлением Рун в старшую школу, они практически расстались на целый год. Веселая и непосредственная Рун не скучала, а целеустремленная малышка Тору, сжав зубы, готовилась к экзаменам, чтобы попасть в ту же школу Аойгаока. Наконец, счастливая младшая подруга прибежала к старшей домой, чтобы сообщить радостную новость – и застала в комнате Рун двух совершенно незнакомых девушек. Это еще что, но чем одна из них занималась с хозяйкой комнаты на кровати?!
Так и выяснилось, что в новой школе Рун крепко подружилась с высокой, эффектной Юко и очкастой умницей Наги. Только места в сердце хватит всем – такова женская мудрость, которой не учат в школе, зато у собравшихся ее достаточно. Можно быть неуклюжей, не блистать в науках, витать в облаках – но нельзя бросать тех, кто тебе дорог. Рун обозначила идею, Юко и Наги ее поддержали и затянули неулыбчивую Тору в свой круг – в итоге дружная компания медленно, но верно разрослась до четырех девчонок, за жизнью и приключениями которых мы будем теперь следить на экране. Воистину, весенний сезон богат историями о прекрасной повседневности!
© Hollow, World Art-Cсылки: Официальная страница || AniDB || World Art || MAL
Рейтинг: 7.6 из 10 (W-A) || 6.86 (1228) (AniDB) || 7.15 (scored by 17240 users) (MAL)-Качество: BDRip
Энкод: OCE
Контейнер: mkv
Тип видео: Без хардсаба
Наличие линковки: Нет
Видео: x264 (Hi10p), 1280x720, ~2600 Kbps, 23.976 fps
Аудио: Japanese, Vorbis, 48000Hz, ~256 Kbps, 2ch, в составе контейнера
Аудио: Russian, AAC, 48000Hz, ~192 Kbps, 2ch, внешними файлами | Miko [ТВ]
Аудио: Russian, AAC, 48000Hz, ~192 Kbps, 2ch, внешними файлами | Inspector Gadjet [ТВ + Спэшлы]
Аудио: Russian, AAC, 48000Hz, ~192 Kbps, 2ch, внешними файлами | Say & Lupin [ТВ]
Субтитры: Russian, ASS, внешними файлами | Advantage [ТВ]
Субтитры: Russian, ASS, внешними файлами | Dreamers Team [Спэшлы]-

Список эпизодов

01. Love: An April Day
02. On Rainy Days, Take a Bath
03. Classmate
04. Kilogram: Attention to Your Weight
05. Ocean: An Ocean Far Away
06. A Midsummer Night`s... A School in Summer
07. Summer Festival: August`s End
08. New Term: Abnormal Circumstance
09. Present: Abstract Art
10. Carbonic Acid: Act up
11. Birthday: Allow me
12. Alien: Anytime
Specials:
S01. Uniform
S02. Nooo!
S03. Participation
S04. There she is
S05. Show me
S06. Exploring
S07. Just for Today
S08. She`s Here
S09. Scared
S10. Genzou-san
S11. Character Bento

Скриншоты

Подробные тех. данные

Общее
Уникальный идентификатор : 239280191020781703454998887740745011841 (0xB403B0417117AE8EB9B8C270DF515281)
Полное имя : ***\A-Channel The Animation [BD] [720p]\[OCE] A-Channel The Animation 03 [BDrip 1280x720 x264 Vorbis].mkv
Формат : Matroska
Версия формата : Version 2
Размер файла : 580 Мбайт
Продолжительность : 24 м.
Режим общего битрейта : Переменный
Общий поток : 3318 Кбит/сек
Дата кодирования : UTC 2011-11-28 07:32:54
Программа кодирования : mkvmerge v2.9.7 ('Tenderness') built on Jul 1 2009 18:43:35
Библиотека кодирования : libebml v0.7.7 + libmatroska v0.8.1
Видео
Идентификатор : 1
Формат : AVC
Формат/Информация : Advanced Video Codec
Профиль формата : High [email protected]
Параметр CABAC формата : Да
Параметр ReFrames формата : 9 кадров
Идентификатор кодека : V_MPEG4/ISO/AVC
Продолжительность : 24 м.
Битрейт : 2996 Кбит/сек
Ширина : 1280 пикселей
Высота : 720 пикселей
Соотношение сторон : 16:9
Режим частоты кадров : Постоянный
Частота кадров : 23,976 кадра/сек
Цветовое пространство : YUV
Субдискретизация насыщенности : 4:2:0
Битовая глубина : 10 бит
Тип развёртки : Прогрессивная
Бит/(Пиксели*Кадры) : 0.136
Размер потока : 524 Мбайт (90%)
Библиотека кодирования : x264 core 118 r2085+614 d1cc25d
Настройки программы : cabac=1 / ref=9 / deblock=1:-2:-2 / analyse=0x3:0x133 / me=umh / subme=9 / psy=1 / fade_compensate=0.00 / psy_rd=0.80:0.00 / mixed_ref=1 / me_range=24 / chroma_me=1 / trellis=2 / 8x8dct=1 / cqm=0 / deadzone=21,11 / fast_pskip=1 / chroma_qp_offset=-2 / threads=6 / sliced_threads=0 / nr=0 / decimate=0 / interlaced=0 / bluray_compat=0 / constrained_intra=0 / fgo=0 / bframes=8 / b_pyramid=2 / b_adapt=2 / b_bias=0 / direct=1 / weightb=1 / open_gop=0 / weightp=2 / keyint=250 / keyint_min=23 / scenecut=40 / intra_refresh=0 / rc=crf / mbtree=0 / crf=15.8 / qcomp=0.70 / qpmin=9 / qpmax=38 / qpstep=4 / ip_ratio=1.40 / pb_ratio=1.30 / aq=1:0.90
Default : Да
Forced : Нет
Аудио
Идентификатор : 2
Формат : Vorbis
Параметр Floor формата : 1
Идентификатор кодека : A_VORBIS
Продолжительность : 24 м.
Вид битрейта : Переменный
Битрейт : 256 Кбит/сек
Каналы : 2 канала
Частота : 48,0 КГц
Метод сжатия : С потерями
Размер потока : 44,8 Мбайт (8%)
Библиотека кодирования : libVorbis (Schaufenugget) (20101101 (Schaufenugget))
Язык : Japanese
Default : Да
Forced : Нет

Создавать темы 04-Янв-2014 08:49

[Профиль]  [ЛС] 

utakata

Стаж: 5 лет 7 месяцев

Сообщений: 70

Симпатии: 2

Мне кажется, или у них головы большие?))

Создавать темы 04-Янв-2014 12:21

[Профиль]  [ЛС] 

Азиз87

Стаж: 4 года 9 месяцев

Сообщений: 752

Симпатии: 143

Есть вопрос на сколько далеко по сравнению с Лаки Стар ушел сюжет данного анимационного сериала? Можно ли будет его смотреть не "боясь" за свой мозг?

Создавать темы 04-Янв-2014 21:38

[Профиль]  [ЛС] 

MeiDoCorpse ®

Стаж: 4 года 3 месяца

Сообщений: 222

Симпатии: 14

Азиз87, хмм... Лаки Стар vs. А-Ченэл... их нельзя сравнивать, абсолютно разные сериалы...

Создавать темы 04-Янв-2014 23:16

[Профиль]  [ЛС] 

DaRk_LeGenD

Стаж: 4 года 4 месяца

Сообщений: 9

Встаньте на раздачу! Очень прощу. Раздачу не ограничивайте.

Создавать темы 16-Июн-2014 20:28

[Профиль]  [ЛС] 

RocknRollа

Стаж: 3 года 6 месяцев

Сообщений: 38

Симпатии: 6

DaRk_LeGenD, Встал. 100 мбит-с думаю хватит

Создавать темы 20-Июн-2014 18:53

[Профиль]  [ЛС] 
Показать сообщения:    
Ответить на тему

Текущее время: 19-Авг 00:56

Часовой пояс: UTC + 5



Вы не можете начинать темы
Вы не можете отвечать на сообщения
Вы не можете редактировать свои сообщения
Вы не можете удалять свои сообщения
Вы не можете голосовать в опросах
Вы не можете прикреплять файлы к сообщениям
Вы не можете скачивать файлы