Интимные места (Наталья Меркулова, Алексей Чупов) [2013 г., драма, мелодрама, ..., DVDRip]

Ответить на тему
 

igor1968 ®

Стаж: 5 лет 5 месяцев

Сообщений: 366

Симпатии: 197

Интимные места Год выпуска: 2013
Жанр: драма, мелодрама, ...
Продолжительность: 01:16:13.240
Режиссер: Наталья Меркулова, Алексей Чупов
В ролях: Юрий Колокольников
Олеся Судзиловская
Юлия Ауг
Никита Тарасов
Ксения Каталымова
Алексей Чупов
Екатерина Щеглова
Тимур Бадалбейли
Динара Янковская
Павел Артемьев
...
История о современных москвичах среднего класса и личных тайнах, которые они прячут за своим достатком и успехом.- -премьера
29 июня 2013, ...
премьера
12 сентября 2013, «Люксор»
релиз на DVD
15 октября 2013, «Lizard Cinema Trade», ...-Качество: DVDRip
Формат: AVI
Видео кодек: XviD
Аудио кодек: MPEG Audio
Видео: 640x272 (2.35:1), 25 fps, XviD build 50 ~1150 kbps avg, 0.26 bit/pixel
Аудио: 48 kHz, MPEG Layer 3, 2 ch, ~128.00 kbps avg-

MediaInfo

General
Complete name :Intimnie.mesta.2013.O.DVDRip.700MB.avi
Format : AVI
Format/Info : Audio Video Interleave
File size : 702 MiB
Duration : 1h 16mn
Overall bit rate : 1 289 Kbps
Writing application : VirtualDubMod 1.5.10.3 | www.virtualdub-fr.org || (build 2550/release)
Writing library : VirtualDubMod build 2550/release
Video
ID : 0
Format : MPEG-4 Visual
Format profile : Advanced [email protected]
Format settings, BVOP : 2
Format settings, QPel : No
Format settings, GMC : No warppoints
Format settings, Matrix : Default (MPEG)
Codec ID : XVID
Codec ID/Hint : XviD
Duration : 1h 16mn
Bit rate : 1 151 Kbps
Width : 640 pixels
Height : 272 pixels
Display aspect ratio : 2.35:1
Frame rate : 25.000 fps
Color space : YUV
Chroma subsampling : 4:2:0
Bit depth : 8 bits
Scan type : Progressive
Compression mode : Lossy
Bits/(Pixel*Frame) : 0.264
Stream size : 627 MiB (89%)
Writing library : XviD 1.2.1 (UTC 2008-12-04)
Audio
ID : 1
Format : MPEG Audio
Format version : Version 1
Format profile : Layer 3
Codec ID : 55
Codec ID/Hint : MP3
Duration : 1h 16mn
Bit rate mode : Constant
Bit rate : 128 Kbps
Channel(s) : 2 channels
Sampling rate : 48.0 KHz
Compression mode : Lossy
Stream size : 69.8 MiB (10%)
Alignment : Aligned on interleaves
Interleave, duration : 40 ms (1.00 video frame)
Interleave, preload duration : 504 ms
Writing library : LAME3.99r
Encoding settings : -m s -V 4 -q 2 -lowpass 17 -b 128
-

Скриншоты

- - -

Создавать темы 04-Янв-2014 10:17

[Профиль]  [ЛС] 

aydef87

Стаж: 4 года 6 месяцев

Сообщений: 21

ну кто скачал и посмотреть

Создавать темы 04-Янв-2014 14:54

[Профиль]  [ЛС] 

pekin

Стаж: 6 лет 8 месяцев

Сообщений: 3

Фильм быдло-серый.

Создавать темы 05-Янв-2014 12:54

[Профиль]  [ЛС] 

Astrolog

Стаж: 5 лет 2 месяца

Сообщений: 213

Симпатии: 27

На мой взгляд, фильм-шедевр, рассчитан он прежде всего на людей мыслящих, которым не чужда психология, любителям драмматургии.
Некогда закрыли аналогичную раздачу на подфоруме Арт-хаус..., пришлось качать с другого торрент-трекера. Спасибо модераторам этого подфорума за их либеральность и гибкость во взглядах.
Жаль не получится влиться в раздачу: у меня файл другого формата, а то бы поддержал на протяжении длительного времени...((

Создавать темы 10-Янв-2014 12:11

[Профиль]  [ЛС] 

Per4ik

Стаж: 3 года 10 месяцев

Сообщений: 11

Симпатии: 3

не теряйтесь с раздачи

Создавать темы 13-Янв-2014 22:42

[Профиль]  [ЛС] 

Jamba

Стаж: 4 года

Сообщений: 54

Симпатии: 4

Посредством маразма дойдем до оргазма-такого фильма я ещё не видел, только русские могут такое снимать ag ag ag

Создавать темы 15-Янв-2014 19:05

[Профиль]  [ЛС] 

endless

Стаж: 3 года 8 месяцев

Сообщений: 9

СКОРОСТЬ !! PLEASE

Создавать темы 16-Янв-2014 23:32

[Профиль]  [ЛС] 

pavel_79

Стаж: 5 лет 4 месяца

Сообщений: 97

Симпатии: 3

фильм не о чём ban

Создавать темы 24-Мар-2014 14:52

[Профиль]  [ЛС] 

artem2010

Стаж: 6 лет 9 месяцев

Сообщений: 89

Симпатии: 7

дай раздачу плиз

Создавать темы 12-Май-2016 19:35

[Профиль]  [ЛС] 
Показать сообщения:    
Ответить на тему

Текущее время: 22-Авг 14:19

Часовой пояс: UTC + 5



Вы не можете начинать темы
Вы не можете отвечать на сообщения
Вы не можете редактировать свои сообщения
Вы не можете удалять свои сообщения
Вы не можете голосовать в опросах
Вы не можете прикреплять файлы к сообщениям
Вы не можете скачивать файлы