Торговый квартал Тамако / Tamako Market (Ямада Наоко) [TV] [без хардсаба] [12 из 12] [RUS(ext), JAP+SUB] [2013 г., комедия, повседневность, BDRip] [720p]

Ответить на тему
 

MeiDoCorpse ®

Стаж: 4 года 5 месяцев

Сообщений: 222

Симпатии: 14

- Год выпуска: 2013
Страна: Япония
Жанр: комедия, повседневность
Продолжительность: ТВ | 12 эп. по 25 мин.-Режиссёр: Ямада Наоко
Сценарий: Ёсида Рэйко
Студия: Kyoto Animation-Описание:
16-летняя Тамако Китасиракава – наследница трудовой династии мастеров рисовых сладостей-моти, что держат свой магазинчик в торговом квартале «Заячья горка». Симпатичная, веселая и трудолюбивая девчонка успевает учиться, ходить в школьный клуб, помогать в лавке и участвовать в жизни района, где все друг друга знают и живут как одна большая семья. Даже конкуренты из соседнего магазина моти соревнуются с кланом Китасиракава честно и открыто, а их наследник Мотидзо – друг детства Тамако, и не прочь превратить эти отношения во что-то большее. Впрочем, это не значит, что персонажи сериала способны ехать лишь по накатанной колее и ничего другого в жизни не ведают!
Наоборот, жители «Заячьей горки», как люди торговые, давно уже ничему не удивляются, в том числе явлению говорящего птица, прибывшего с далекого тропического острова выбирать невесту для своего принца. А что принц? И не таких видали, даже если явится – найдется чем напоить-накормить. А пока что пернатый посланник поселился у Тамако и активно включился в дела и заботы героини и ее друзей, обнаружив, кстати, многие скрытые таланты. Вот только хозяйских сладостей птиц по имени Дэра Мотимадзи лопает столько, что вряд ли улетит в свои края по весне – придется, видно, и вправду ждать в гости Его Высочество!
© Hollow, World Art-Cсылки: Официальная страница || AniDB || World Art || MAL
Рейтинг: 7.5 из 10 (W-A) || 6.64 (854) (AniDB) || 7.31 (scored by 23357 users) (MAL)-Качество: BDRip
Энкод: Winter
Контейнер: mkv
Тип видео: Без хардсаба
Наличие линковки: Нет
Видео: x264 (Hi10p), 1280x720, ~2800 Kbps, 23.976 fps
Аудио: Japanese, Vorbis, 48000Hz, ~256 Kbps, 2ch, в составе контейнера
Аудио: Russian, AC3, 48000Hz, ~192 Kbps, 2ch, внешними файлами | Zendos & Eladiel [ТВ]
Субтитры: Russian, ASS, внешними файлами | Sa4ko aka Kiyoso & Zenobian-

Список эпизодов

01. She`s the Cute Daughter of a Mochi Maker
02. A Valentine`s Day Blooming with Love
03. Hot Hot Hot over That Cool Girl
04. A Small Love Has Bloomed
05. We Spent a Night Together
06. It`s Chilled Even My Spine
07. That Girl`s Become a Bride
08. I Won`t Let You Call Me a Chicken
09. I Will Sing Love`s Song
10. Flowers Bloom on That Girl`s Baton
11. I Never Thought That Girl Would Be a Princess
12. This Year, Too, Has Come to a Close

Скриншоты

Подробные тех. данные

General
Unique ID : 204395674256233422311333151075979680086 (0x99C52CC9DF5C45859D3F5CAAD38AD956)
Complete name : ***\Tamako Market [BD] [720p]\[Winter] Tamako Market 01 [BDrip 1280x720 x264 Vorbis].mkv
Format : Matroska
Format version : Version 2
File size : 528 MiB
Duration : 23mn 41s
Overall bit rate mode : Variable
Overall bit rate : 3 114 Kbps
Encoded date : UTC 2013-03-26 14:38:58
Writing application : mkvmerge v2.9.8 ('C'est le bon') built on Aug 13 2009 12:49:06
Writing library : libebml v0.7.7 + libmatroska v0.8.1
Video
ID : 1
Format : AVC
Format/Info : Advanced Video Codec
Format profile : High [email protected]
Format settings, CABAC : Yes
Format settings, ReFrames : 9 frames
Codec ID : V_MPEG4/ISO/AVC
Duration : 23mn 41s
Bit rate : 2 796 Kbps
Width : 1 280 pixels
Height : 720 pixels
Display aspect ratio : 16:9
Frame rate mode : Constant
Frame rate : 23.976 fps
Color space : YUV
Chroma subsampling : 4:2:0
Bit depth : 10 bits
Scan type : Progressive
Bits/(Pixel*Frame) : 0.127
Stream size : 474 MiB (90%)
Writing library : x264 core 125 r2200 999b753
Encoding settings : cabac=1 / ref=9 / deblock=1:-2:-2 / analyse=0x3:0x133 / me=umh / subme=9 / psy=1 / psy_rd=0.90:0.00 / mixed_ref=1 / me_range=24 / chroma_me=1 / trellis=2 / 8x8dct=1 / cqm=0 / deadzone=21,11 / fast_pskip=1 / chroma_qp_offset=-2 / threads=6 / lookahead_threads=1 / sliced_threads=0 / nr=0 / decimate=0 / interlaced=0 / bluray_compat=0 / constrained_intra=0 / bframes=8 / b_pyramid=2 / b_adapt=2 / b_bias=0 / direct=1 / weightb=1 / open_gop=0 / weightp=2 / keyint=250 / keyint_min=23 / scenecut=40 / intra_refresh=0 / rc=crf / mbtree=0 / crf=15.8 / qcomp=0.70 / qpmin=9 / qpmax=40 / qpstep=4 / ip_ratio=1.40 / pb_ratio=1.30 / aq=1:0.90
Default : No
Forced : No
Audio
ID : 2
Format : Vorbis
Format settings, Floor : 1
Codec ID : A_VORBIS
Duration : 23mn 41s
Bit rate mode : Variable
Bit rate : 256 Kbps
Channel count : 2 channels
Sampling rate : 48.0 KHz
Compression mode : Lossy
Stream size : 43.4 MiB (8%)
Writing library : libVorbis (Omnipresent) (20120203 (Omnipresent))
Language : Japanese
Default : Yes
Forced : No

Создавать темы 04-Янв-2014 11:36

[Профиль]  [ЛС] 
Показать сообщения:    
Ответить на тему

Текущее время: 19-Окт 05:08

Часовой пояс: UTC + 5



Вы не можете начинать темы
Вы не можете отвечать на сообщения
Вы не можете редактировать свои сообщения
Вы не можете удалять свои сообщения
Вы не можете голосовать в опросах
Вы не можете прикреплять файлы к сообщениям
Вы не можете скачивать файлы