Телекинез / Carrie (Кимберли Пирс / Kimberly Peirce) [2013, США, триллер, ужасы, драма, HDRip] [Чистый звук]

Страницы :  1, 2  След.

Ответить на тему
 

Suxrob89 ®

Стаж: 7 лет 2 месяца

Сообщений: 933

Симпатии: 564

- -Телекинез / Carrie- Страна: США / Metro-Goldwyn-Mayer (MGM), Screen Gems
Жанр: триллер, ужасы, драма
Год выпуска: 2013
Продолжительность: 01:40:56
Перевод: Дублированное [Чистый звук]-Режиссер: Кимберли Пирс / Kimberly Peirce-В ролях: Хлоя Грейс Морец (Carrie White), Джулианна Мур (Margaret White), Джуди Грир (Ms. Desjardin), Портия Даблдэй (Chris Hargensen), Габриэлла Уайлд (Sue Snell), Алекс Расселл (Billy Nolan), Зои Белкин (Tina), Энсел Эльгорт (Tommy Ross), Саманта Вайнштейн (Heather), Карисса Стрэйн (Nicki), Кэти Стрэйн (Lizzy), Бэрри Шебака Хенли (Principal Morton)-Описание: Невзрачная старшеклассница по имени Кэрри с рождения обладает способностями телекинеза. Давление со стороны фанатично религиозной мамочки и постоянные издевки сверстников лишь способствует развитию ее сверхъестественных способностей. На выпускном одноклассники решают жестоко подшутить над ней, что приводит к фатальным последствиям.- -Качество видео: HDRip [Рип с BDRip 720p]
Формат видео: AVI
Видео: 1673 kb/s, 720x304, 23.976 fps
Аудио: AC3, 384 kb/s (2 ch), 48.0 KHz

MediaInfo

D:\Telekinez.2013.D.HDRip.1400MB.avi
General
Complete name : D:\Telekinez.2013.D.HDRip.1400MB.avi
Format : AVI
Format/Info : Audio Video Interleave
File size : 1.46 GiB
Duration : 1h 40mn
Overall bit rate : 2 066 Kbps
Writing application : VirtualDubMod 1.5.10.2 (build 2540/release)
Writing library : VirtualDubMod build 2540/release
Video #0
ID : 0
Format : MPEG-4 Visual
Format profile : Advanced [email protected]
Format settings, BVOP : 2
Format settings, QPel : No
Format settings, GMC : No warppoints
Format settings, Matrix : Custom
Codec ID : XVID
Codec ID/Hint : XviD
Duration : 1h 40mn
Bit rate : 1 673 Kbps
Width : 720 pixels
Height : 304 pixels
Display aspect ratio : 2.35:1
Frame rate : 23.976 fps
Color space : YUV
Chroma subsampling : 4:2:0
Bit depth : 8 bits
Scan type : Progressive
Compression mode : Lossy
Bits/(Pixel*Frame) : 0.319
Stream size : 1.18 GiB (81%)
Writing library : XviD 1.2.1 (UTC 2008-12-04)
Audio #1
ID : 1
Format : AC-3
Format/Info : Audio Coding 3
Mode extension : CM (complete main)
Format settings, Endianness : Big
Codec ID : 2000
Duration : 1h 40mn
Bit rate mode : Constant
Bit rate : 384 Kbps
Channel(s) : 2 channels
Channel positions : Front: L R
Sampling rate : 48.0 KHz
Bit depth : 16 bits
Compression mode : Lossy
Stream size : 277 MiB (19%)
Alignment : Split accross interleaves
Interleave, duration : 42 ms (1.00 video frame)
Interleave, preload duration : 500 ms

Скриншот c названием фильма

Скриншоты



Последний раз редактировалось: Suxrob89 (2014-01-11 06:21), всего редактировалось 2 раз(а)

Создавать темы 05-Янв-2014 05:57

[Профиль]  [ЛС] 

Nash

Стаж: 4 года 9 месяцев

Сообщений: 73

Честно говоря ждал от фильма большего, половину фильма смеялся как на комедии !
Чего стоит Удар КНИГОЙ ,
и данный Шедевральный диалог:
- Убери свои убогие подушки !
- Это не подушки Мама, это грудь, она у тебя тоже есть !

Создавать темы 05-Янв-2014 18:37

[Профиль]  [ЛС] 

air6797

Стаж: 4 года 11 месяцев

Сообщений: 114

Симпатии: 1

- Убери свои убогие подушки !
- Это не подушки Мама, это грудь, она у тебя тоже есть !
bj bj
Точно скачаю !!!

Создавать темы 05-Янв-2014 18:48

[Профиль]  [ЛС] 

Zeus

Стаж: 3 года 9 месяцев

Сообщений: 38

Симпатии: 3

Когда же лицензия выйдет?!

Создавать темы 05-Янв-2014 19:10

[Профиль]  [ЛС] 

TimaK

Стаж: 6 лет 5 месяцев

Сообщений: 129

Симпатии: 23

Честно говоря ждал от фильма большего, половину фильма смеялся как на комедии!
Смеяться над таким?. . . Ты как то девушка которая выложила ролик в интернет (ст**ва)!

Создавать темы 05-Янв-2014 22:36

[Профиль]  [ЛС] 

Nash

Стаж: 4 года 9 месяцев

Сообщений: 73

Честно говоря ждал от фильма большего, половину фильма смеялся как на комедии!
Смеяться над таким?. . . Ты как то девушка которая выложила ролик в интернет (ст**ва)!
Батюшки что за эталон Нравственности !
Я смеялся не над главной героиней и её "страданиями",
а над тем как режиссер подал сюжет,
над диалогами, над подбором актеров - зачуханная Кэрри выглядит лучше почти всех актрисс в фильме,
над персонажем Джулианны Мур с её выходками,
над парнем с сачком, прочитавшим книгу 100 фраз для ПИКАПА,
и т.д. и т.п.

Создавать темы 06-Янв-2014 10:24

[Профиль]  [ЛС] 

MR JAS

Стаж: 4 года 7 месяцев

Сообщений: 12

Скорость плиз!!!!!!!!!!!!!!!!

Создавать темы 06-Янв-2014 12:28

[Профиль]  [ЛС] 

kamilchik

Стаж: 5 лет 3 месяца

Сообщений: 50

Честно говоря ждал от фильма большего, половину фильма смеялся как на комедии !
Чего стоит Удар КНИГОЙ ,
и данный Шедевральный диалог:
- Убери свои убогие подушки !
- Это не подушки Мама, это грудь, она у тебя тоже есть !
pillows кстати как подкладка можно перевести , хотя мамка то совсем не подкладку имела ввиду. и как звучит ! breasts Mama , you have them and every woman has them

Создавать темы 08-Янв-2014 02:44

[Профиль]  [ЛС] 

Bennet

Стаж: 3 года 9 месяцев

Сообщений: 1

Скорость дайте!!

Создавать темы 08-Янв-2014 21:48

[Профиль]  [ЛС] 

Suxrob89 ®

Стаж: 7 лет 2 месяца

Сообщений: 933

Симпатии: 564

Телекинез / Carrie (Кимберли Пирс / Kimberly Peirce) [2013, США, триллер, ужасы, драма, BDRip 720p] [Чистый звук]+Original

Создавать темы 11-Янв-2014 17:07

[Профиль]  [ЛС] 

ralex

Стаж: 5 лет 9 месяцев

Сообщений: 289

Симпатии: 28

Жалею, что потратил время на этот фильм!

Создавать темы 13-Янв-2014 02:43

[Профиль]  [ЛС] 

bobsansaba

Стаж: 3 года 10 месяцев

Сообщений: 45

Симпатии: 4

Жалею, что потратил время на этот фильм!
да отстой!

Создавать темы 13-Янв-2014 23:16

[Профиль]  [ЛС] 

shoira

Стаж: 4 года 7 месяцев

Сообщений: 29

Симпатии: 1

дайте скорости плз сказало 98,6%

Создавать темы 14-Янв-2014 18:34

[Профиль]  [ЛС] 

shoira

Стаж: 4 года 7 месяцев

Сообщений: 29

Симпатии: 1

дайте скорост плзззз осталось 0,7 всего !!

Создавать темы 14-Янв-2014 19:12

[Профиль]  [ЛС] 

wolfer

Стаж: 5 лет 8 месяцев

Сообщений: 61

Рейтинг как то не так составлен я бы дал 2.5 из 10! Думал перед сном заряжусь ощущениями от таких фильмов, нет, весь фильм ждал адекватности и острых ощущений. Фильм убогий.

Создавать темы 15-Янв-2014 02:56

[Профиль]  [ЛС] 
Показать сообщения:    
Ответить на тему

Текущее время: 24-Окт 14:43

Часовой пояс: UTC + 5



Вы не можете начинать темы
Вы не можете отвечать на сообщения
Вы не можете редактировать свои сообщения
Вы не можете удалять свои сообщения
Вы не можете голосовать в опросах
Вы не можете прикреплять файлы к сообщениям
Вы не можете скачивать файлы