Принцесса Цу / Макен-Ки / Maken-ki OVA-1 (Охата Койти) [2012 г., приключение, комедия, романтика, этти, SATRip]

Ответить на тему
 

San_dieGo ®

Стаж: 4 года 9 месяцев

Сообщений: 155

Симпатии: 2

-Принцесса Цу-Макен-Ки-Maken-ki-
Год выпуска: 2012
Страна: Япония
Жанр: приключение, комедия, романтика, этти
Продолжительность: Ova 25мин.
Перевод: Любительский (одноголосый) Ancord
Режиссер: Охата Койти
Описание: Такэру Ояма провел три года средней школы в мужском интернате и, конечно же, истосковался по прекрасному полу. Потому он без сомнений записался в академию «Солнечная» - тоже интернат, только женский, в котором лишь сейчас разрешили совместное обучение. Другим плюсом было то, что там училась на год старшая Харуко Амая, не только подруга детства, но и «сестра» по клубу карате, от которой Такэру ожидал совета и помощи в новом волнующем мире, где уже видел себя «первым парнем». Озабоченный понятными мыслями, главный герой упустил из вида одну маленькую деталь - «Солнечная» была основана как школа магии и боевых искусств!
Получается, что все старшие ученицы – серьезные бойцы, укрепившие тело и дух и получившие от богов «макэн» - вид магического оружия. Нравы в академии исключительно матриархальные, а способ решения споров очень прост. Так что бедняге Такэру остается лишь плыть по течению, когда одна красавица объявила его своим давним врагом и вызвала на поединок, а вторая спасла от смертельного удара и представилась как его нареченная. Уже в состоянии грогги парень наблюдал, как обе девушки заселились в его комнату, а вслед за ними заехала и «сестрица» Харуко. В итоге бедняге Ояме пришлось спать чуть ли не на потолке. Гарем, говорите? Вам бы такой гарем!
-Качество: SATRip
Формат: MPEG
Видео кодек: Другой MPEG4
Аудио кодек: MPEG Audio
Видео: Video: MPEG4 Video (H264) 854x480 23.976fps [VideoHandler - MPEG4 Video (H264)]
Аудио: Audio: AAC 44100Hz stereo [SoundHandler - MPEG-4 Audio (rus)]

Медиа Инфо

General
Complete name : C:\Users\63\Videos\Ova1.mp4
Format : MPEG-4
Format profile : Base Media
Codec ID : isom
File size : 152 MiB
Duration : 23mn 57s
Overall bit rate mode : Variable
Overall bit rate : 888 Kbps
Writing application : Lavf52.40.0
Video
ID : 1
Format : AVC
Format/Info : Advanced Video Codec
Format profile : [email protected]
Format settings, CABAC : Yes
Format settings, ReFrames : 3 frames
Codec ID : avc1
Codec ID/Info : Advanced Video Coding
Duration : 23mn 56s
Bit rate : 755 Kbps
Nominal bit rate : 800 Kbps
Width : 854 pixels
Height : 480 pixels
Display aspect ratio : 16:9
Frame rate mode : Variable
Frame rate : 23.976 fps
Original frame rate : 25.000 fps
Minimum frame rate : 12.500 fps
Maximum frame rate : 25.000 fps
Color space : YUV
Chroma subsampling : 4:2:0
Bit depth : 8 bits
Scan type : Progressive
Bits/(Pixel*Frame) : 0.077
Stream size : 129 MiB (85%)
Writing library : x264 core 79
Encoding settings : cabac=1 / ref=3 / deblock=1:0:0 / analyse=0x3:0x113 / me=hex / subme=7 / psy=1 / psy_rd=1.0:0.0 / mixed_ref=1 / me_range=16 / chroma_me=1 / trellis=1 / 8x8dct=1 / cqm=0 / deadzone=21,11 / chroma_qp_offset=-2 / threads=24 / nr=0 / decimate=1 / mbaff=0 / constrained_intra=0 / bframes=3 / b_pyramid=0 / b_adapt=1 / b_bias=0 / direct=1 / wpredb=32 / wpredp=2 / keyint=250 / keyint_min=25 / scenecut=40 / rc_lookahead=40 / rc=abr / mbtree=1 / bitrate=800 / ratetol=5.0 / qcomp=0.60 / qpmin=10 / qpmax=51 / qpstep=4 / ip_ratio=1.41 / aq=1:1.00
Audio
ID : 2
Format : AAC
Format/Info : Advanced Audio Codec
Format profile : LC
Codec ID : 40
Duration : 23mn 57s
Bit rate mode : Variable
Bit rate : 128 Kbps
Channel(s) : 2 channels
Channel positions : Front: L R
Sampling rate : 44.1 KHz
Compression mode : Lossy
Delay relative to video : 40ms
Stream size : 21.9 MiB (14%)
Language : Russian

Скриншоты



Создавать темы 05-Янв-2014 10:27

[Профиль]  [ЛС] 

Топик был перенесен из форума Low-Rip (TS, TVRip, etc.) в форум OVA и дополнения к аниме

San_dieGo

Создавать темы 05-Янв-2014 10:30

 
Показать сообщения:    
Ответить на тему

Текущее время: 21-Окт 19:09

Часовой пояс: UTC + 5



Вы не можете начинать темы
Вы не можете отвечать на сообщения
Вы не можете редактировать свои сообщения
Вы не можете удалять свои сообщения
Вы не можете голосовать в опросах
Вы не можете прикреплять файлы к сообщениям
Вы не можете скачивать файлы