Дворецкий / The Butler (Ли Дэниелс / Lee Daniels) [2013, США, драма, биография, HDRip] VO

Ответить на тему
 

Suxrob89 ®

Стаж: 7 лет 1 месяц

Сообщений: 933

Симпатии: 564

Дворецкий / The Butler-«One quiet voice can ignite a revolution»- Страна: США
Жанр: драма, биография
Год выпуска: 2013
Продолжительность: 02:12:05]
Перевод: Одноголосый закадровый [VANO]
Cубтитры: нет
Оригинальная аудиодорожка: нет-Режиссер: Ли Дэниелс / Lee Daniels-В ролях: Форест Уитакер, Опра Уинфри, Джон Кьюсак,Джейн Фонда,Терренс Ховард, Кьюба Гудинг мл., Ленни Кравиц, Дэвид Ойелоуо, Ванесса Редгрейв,Алан Рикман, Робин Уильямс, Лив Шрайбер-Описание: В фильме, основанном на статье из Washington Post, рассказывается о дворецком Юджине Аллене, служившем в Белом Доме под началом восьми разных президентов.- -Качество видео: HDRip
Формат видео: AVI
Видео: XviD, 720x384, 1,85:1, 23,976 fps, 1744 Kb/s
Аудио: AC3, 48000 KHz, 384 Kb/s (6 ch)

MediaInfo

D:\Dvoreckiy.2013.L1.HDRip.1400MB.avi
General
Complete name : D:\Dvoreckiy.2013.L1.HDRip.1400MB.avi
Format : AVI
Format/Info : Audio Video Interleave
Format profile : OpenDML
Format settings : rec
File size : 1.37 GiB
Duration : 2h 12mn
Overall bit rate : 1 483 Kbps
Writing application : AVI-Mux GUI 1.17.8.3, Feb 16 201019:42:50
Video #0
ID : 0
Format : MPEG-4 Visual
Codec ID : XVID
Codec ID/Hint : XviD
Duration : 2h 12mn
Source duration : 10mn 26s
Bit rate : 111 Kbps
Width : 720 pixels
Height : 384 pixels
Display aspect ratio : 1.85:1
Frame rate : 23.976 fps
Color space : YUV
Chroma subsampling : 4:2:0
Compression mode : Lossy
Bits/(Pixel*Frame) : 0.017
Stream size : 105 MiB (8%)
Audio #1
ID : 1
Format : AC-3
Format/Info : Audio Coding 3
Codec ID : 2000
Duration : 2h 12mn
Source duration : 10mn 26s
Bit rate mode : Constant
Bit rate : 384 Kbps
Channel(s) : 6 channels
Sampling rate : 48.0 KHz
Compression mode : Lossy
Stream size : 28.7 MiB (2%)
Alignment : Aligned on interleaves
Interleave, duration : 64 ms (1.53 video frames)
Interleave, preload duration : 192 ms

Скриншот c названием фильма

Скриншоты

Создавать темы 06-Янв-2014 07:18

[Профиль]  [ЛС] 

mk

Стаж: 6 лет 8 месяцев

Сообщений: 33

Симпатии: 2

ждемсс перевода

Создавать темы 06-Янв-2014 14:57

[Профиль]  [ЛС] 

bey71

Стаж: 4 года 5 месяцев

Сообщений: 11

Wow
больше полгода назад начал качать, докачал до 70% и все. Полгода так и стоял недокаченный. Сегодня ночью какой-то добрый человек додал мне до 98,1% и скрылся, надеюсь не навсегда :)
Друг, вернись завтра!!!

Создавать темы 15-Ноя-2014 08:28

[Профиль]  [ЛС] 
Показать сообщения:    
Ответить на тему

Текущее время: 23-Сен 12:35

Часовой пояс: UTC + 5



Вы не можете начинать темы
Вы не можете отвечать на сообщения
Вы не можете редактировать свои сообщения
Вы не можете удалять свои сообщения
Вы не можете голосовать в опросах
Вы не можете прикреплять файлы к сообщениям
Вы не можете скачивать файлы