Посрами Дьявола / Shame the Devil (Пол Тантер) [2013 г., триллер, криминал, детектив, DVDRip]

Ответить на тему
 

igor1968 ®

Стаж: 5 лет 5 месяцев

Сообщений: 366

Симпатии: 197

Посрами Дьявола / Shame the Devil--«Would you lie to a colleague to save your job? Would you lie to a wife to save your marriage? Would you lie to a serial killer to save your life?»-- Год выпуска: 2013
Страна: Великобритания
Жанр: криминал
Продолжительность: 01:34:41
Перевод: Любительский (одноголосый закадровый) RG Xixidok по субтитрам kon2011--Режиссер: Пол Тантер--В ролях: Саймон Филлипс, Джульетт Беннетт, Уилл Де Мео, Брэдфорд Уэст, Даг Брэдли, Келли Ширли, Питер Вудворд, Питер Баррет, Люси Клементс, Джек Мюррэй-- : Полицейский из Лондона расследует дело серийного маньяка, убивающего своих жертв с помощью детектора лжи.---Доп. информация:
 ---Качество: DVDRip
Формат: AVI
Видео кодек: XviD
Аудио кодек: MP3
Видео: 720x304 (2.37:1), 23.976 fps, XviD MPEG-4 ~1277 kbps avg, 0.24 bit/pixel
Аудио: 44.100 kHz, MPEG Layer 3, 2 ch, ~192.00 kbps avg-
General
Complete name :Shame.the.Devil.2013.avi
Format : AVI
Format/Info : Audio Video Interleave
File size : 1 001 MiB
Duration : 1h 34mn
Overall bit rate : 1 479 Kbps
Writing application : VirtualDubMod 1.5.10.3 (build 2550/release)
Writing library : VirtualDubMod build 2550/release
Video
ID : 0
Format : MPEG-4 Visual
Format profile : Advanced [email protected]
Format settings, BVOP : 2
Format settings, QPel : No
Format settings, GMC : No warppoints
Format settings, Matrix : Default (H.263)
Muxing mode : Packed bitstream
Codec ID : XVID
Codec ID/Hint : XviD
Duration : 1h 34mn
Bit rate : 1 277 Kbps
Width : 720 pixels
Height : 304 pixels
Display aspect ratio : 2.35:1
Frame rate : 23.976 fps
Color space : YUV
Chroma subsampling : 4:2:0
Bit depth : 8 bits
Scan type : Progressive
Compression mode : Lossy
Bits/(Pixel*Frame) : 0.243
Stream size : 865 MiB (86%)
Writing library : XviD 64
Audio
ID : 1
Format : MPEG Audio
Format version : Version 1
Format profile : Layer 3
Codec ID : 55
Codec ID/Hint : MP3
Duration : 1h 34mn
Bit rate mode : Constant
Bit rate : 192 Kbps
Channel(s) : 2 channels
Sampling rate : 44.1 KHz
Compression mode : Lossy
Stream size : 130 MiB (13%)
Alignment : Split accross interleaves
Interleave, duration : 42 ms (1.00 video frame)
Interleave, preload duration : 500 ms
-

Скриншоты




-БЕЗ ПЕРЕВОДА
http://mover.uz/watch/KfJgL5Oj/- -


Последний раз редактировалось: igor1968 (2014-01-07 13:47), всего редактировалось 2 раз(а)

Создавать темы 06-Янв-2014 11:41

[Профиль]  [ЛС] 

Топик был перенесен из форума CamRip\Telesync\SATRip\TVRip в форум Фильмы за 2013

Иви

Создавать темы 06-Янв-2014 13:44

 

Иви

Стаж: 5 лет 7 месяцев

Сообщений: 688

Симпатии: 65

шапку подправил

Создавать темы 06-Янв-2014 13:45

[Профиль]  [ЛС] 
Показать сообщения:    
Ответить на тему

Текущее время: 24-Авг 08:12

Часовой пояс: UTC + 5



Вы не можете начинать темы
Вы не можете отвечать на сообщения
Вы не можете редактировать свои сообщения
Вы не можете удалять свои сообщения
Вы не можете голосовать в опросах
Вы не можете прикреплять файлы к сообщениям
Вы не можете скачивать файлы