Не дотрагиваясь / Bez doteku (Matej Chlupacek, Михал Самир) [2013 г., триллер, драма, DVDRip]

Ответить на тему
 

igor1968 ®

Стаж: 5 лет 7 месяцев

Сообщений: 366

Симпатии: 197

Не дотрагиваясь / Bez doteku Год выпуска: 2013
Страна:
Жанр: триллер, драма
Продолжительность: 01:09:35.399
Перевод: Любительский (одноголосый)
Режиссер: Matej Chlupacek, Михал Самир
В ролях: Криштоф Гадек
Адриан Ястрабан
Петра Лустигова
Ондржей Малый
Мэриэн Роден
Хана Вагнерова
Tereza Vítu- Когда ещё Ёлана была совсем юной, то её возжелал как женщину собственный отчим. Она была как загнанный зверь, ведь её собственная мать на всё это закрывала глаза. В последствии жизненный путь её довёл до борделя…- -премьера
29 июня 2013-Качество: DVDRip
Формат: AVI
Видео кодек: XviD
Аудио кодек: MPEG Audio
Видео: 704x304 (2.32:1), 25 fps, XviD build 50 ~1353 kbps avg, 0.25 bit/pixel
Аудио: 44.100 kHz, MPEG Layer 3, 2 ch, ~192.00 kbps avg-

MediaInfo

General
Complete name :Bez.doteku.2013.DVDRip.avi
Format : AVI
Format/Info : Audio Video Interleave
File size : 774 MiB
Duration : 1h 9mn
Overall bit rate : 1 556 Kbps
Writing application : VirtualDubMod 1.5.10.2 (build 2540/release)
Writing library : VirtualDub build 34753/release
Video
ID : 0
Format : MPEG-4 Visual
Format profile : Advanced [email protected]
Format settings, BVOP : 2
Format settings, QPel : No
Format settings, GMC : No warppoints
Format settings, Matrix : Default (MPEG)
Codec ID : XVID
Codec ID/Hint : XviD
Duration : 1h 9mn
Bit rate : 1 354 Kbps
Width : 704 pixels
Height : 304 pixels
Display aspect ratio : 2.35:1
Frame rate : 25.000 fps
Color space : YUV
Chroma subsampling : 4:2:0
Bit depth : 8 bits
Scan type : Progressive
Compression mode : Lossy
Bits/(Pixel*Frame) : 0.253
Stream size : 674 MiB (87%)
Writing library : XviD 1.2.1 (UTC 2008-12-04)
Audio
ID : 1
Format : MPEG Audio
Format version : Version 1
Format profile : Layer 3
Codec ID : 55
Codec ID/Hint : MP3
Duration : 1h 9mn
Bit rate mode : Constant
Bit rate : 192 Kbps
Channel(s) : 2 channels
Sampling rate : 44.1 KHz
Compression mode : Lossy
Stream size : 95.6 MiB (12%)
Alignment : Split accross interleaves
Interleave, duration : 40 ms (1.00 video frame)
Interleave, preload duration : 500 ms
-

Скриншоты

- - -

Создавать темы 06-Янв-2014 16:55

[Профиль]  [ЛС] 

Bloodman

Стаж: 4 года 9 месяцев

Сообщений: 28

Симпатии: 3

/
Народ как кино ?
Вот как

Создавать темы 06-Янв-2014 18:17

[Профиль]  [ЛС] 

laziz-tas-ix-net

Стаж: 3 года 11 месяцев

Сообщений: 7

Спасибо тебе!

Создавать темы 06-Янв-2014 18:36

[Профиль]  [ЛС] 

Butty

Стаж: 5 лет 1 месяц

Сообщений: 96

Симпатии: 6

смотрел его 4 раза .. и не как не досмотрел

Создавать темы 06-Янв-2014 22:21

[Профиль]  [ЛС] 

Allwind

Стаж: 4 года

Сообщений: 2

фильм мрачный, с мерзкими сюжетами, короче отстой

Создавать темы 12-Янв-2014 17:12

[Профиль]  [ЛС] 
Показать сообщения:    
Ответить на тему

Текущее время: 22-Окт 16:50

Часовой пояс: UTC + 5



Вы не можете начинать темы
Вы не можете отвечать на сообщения
Вы не можете редактировать свои сообщения
Вы не можете удалять свои сообщения
Вы не можете голосовать в опросах
Вы не можете прикреплять файлы к сообщениям
Вы не можете скачивать файлы