Другая жизнь Ришара Кемпа / L'autre vie de Richard Kemp (Жерминаль Альварез) [2013 г., фэнтези, триллер, криминал, ..., HDRip-AVC]

Ответить на тему
 

igor1968 ®

Стаж: 5 лет 5 месяцев

Сообщений: 366

Симпатии: 197

Другая жизнь Ришара Кемпа / L'autre vie de Richard Kemp
Год выпуска: 2013
Страна:
Жанр: фэнтези, триллер, криминал, ...
Продолжительность: 01:40:44
Перевод: Любительский (одноголосый) | Xixidok
(русские субтитры)
Режиссер: Жерминаль Альварез
В ролях: Жан-Юг Англад
Мелани Тьерри
Philippe Berodot
Жан-Анри Компере
Пьер Мур
Loïc Rojouan
Фридерик Сорель
Nicolas Villemagne
Адриен Кошетье
Эльза Жаллес
...
Расследуя очередное дело, капитан полиции Ришар Кемп обнаруживает, что новое убийство как две капли воды похоже на работу серийного маньяка, который орудовал в этих краях тридцать с лишним лет назад. Мистическим образом Ришар Кемп переносится в май 1989 года, ровно за день до того, как маньяк совершит первое убийство. Кемп решает изменить прошлое и поймать убийцу еще до того, как тот совершит преступление, но ему активно мешает молодой и амбициозный детектив — ни кто иной, как он сам.- -премьера
6 апреля 2013, ...-Качество: HDRip-AVC
Формат: MKV
Видео кодек: H.264
Аудио кодек: AC3, MP3
Видео: 720x304 23.976fps 1493 Kbps
Аудио: 48000Hz 6ch 448 Kbps [fra] Subtitle: UTF-8 [Subtitle](rus)
Audio 2: 44100Hz stereo 192 Kbps [Audio][rus] Subtitle: UTF-8 [Subtitle](rus)-

MediaInfo

General
Unique ID : 216835016447526504067291732133111077644 (0xA320E7B5BC0ACDF388AC5FC353D31B0C)
Complete name :L.Autre.Vie.De.Richard.Kemp.2013.Xixidok.mkv
Format : Matroska
Format version : Version 1
File size : 1.50 GiB
Duration : 1h 40mn
Overall bit rate : 2 137 Kbps
Encoded date : UTC 2014-01-02 15:59:38
Writing application : mkvmerge v2.3.0 ('Freak U') built on Sep 8 2008 18:32:16
Writing library : libebml v0.7.7 + libmatroska v0.8.1
Video
ID : 1
Format : AVC
Format/Info : Advanced Video Codec
Format profile : [email protected]
Format settings, CABAC : Yes
Format settings, ReFrames : 5 frames
Codec ID : V_MPEG4/ISO/AVC
Duration : 1h 40mn
Bit rate : 1 493 Kbps
Width : 720 pixels
Height : 304 pixels
Display aspect ratio : 2.35:1
Original display aspect ratio : 2.35:1
Frame rate mode : Constant
Frame rate : 23.976 fps
Color space : YUV
Chroma subsampling : 4:2:0
Bit depth : 8 bits
Scan type : Progressive
Bits/(Pixel*Frame) : 0.284
Stream size : 1.02 GiB (68%)
Writing library : x264 core 138 r2358 9e941d1
Encoding settings : cabac=1 / ref=5 / deblock=1:-1:-1 / analyse=0x3:0x113 / me=umh / subme=8 / psy=1 / psy_rd=1.00:0.15 / mixed_ref=1 / me_range=16 / chroma_me=1 / trellis=1 / 8x8dct=1 / cqm=0 / deadzone=21,11 / fast_pskip=1 / chroma_qp_offset=-3 / threads=18 / lookahead_threads=2 / sliced_threads=0 / nr=0 / decimate=1 / interlaced=0 / bluray_compat=0 / constrained_intra=0 / bframes=3 / b_pyramid=2 / b_adapt=2 / b_bias=0 / direct=3 / weightb=1 / open_gop=0 / weightp=2 / keyint=250 / keyint_min=23 / scenecut=40 / intra_refresh=0 / rc_lookahead=50 / rc=2pass / mbtree=1 / bitrate=1493 / ratetol=1.0 / qcomp=0.60 / qpmin=0 / qpmax=69 / qpstep=4 / cplxblur=20.0 / qblur=0.5 / ip_ratio=1.40 / aq=1:1.00
Language : French
Default : Yes
Forced : No
Audio #1
ID : 2
Format : MPEG Audio
Format version : Version 1
Format profile : Layer 3
Codec ID : A_MPEG/L3
Codec ID/Hint : MP3
Duration : 1h 40mn
Bit rate mode : Constant
Bit rate : 192 Kbps
Channel(s) : 2 channels
Sampling rate : 44.1 KHz
Compression mode : Lossy
Delay relative to video : 200ms
Stream size : 138 MiB (9%)
Default : No
Forced : No
Audio #2
ID : 3
Format : AC-3
Format/Info : Audio Coding 3
Mode extension : CM (complete main)
Format settings, Endianness : Big
Codec ID : A_AC3
Duration : 1h 40mn
Bit rate mode : Constant
Bit rate : 448 Kbps
Channel(s) : 6 channels
Channel positions : Front: L C R, Side: L R, LFE
Sampling rate : 48.0 KHz
Bit depth : 16 bits
Compression mode : Lossy
Stream size : 323 MiB (21%)
Language : French
Default : Yes
Forced : No
Text
ID : 4
Format : UTF-8
Codec ID : S_TEXT/UTF8
Codec ID/Info : UTF-8 Plain Text
Default : Yes
Forced : No
-

Скриншоты

- - -


Последний раз редактировалось: igor1968 (2014-01-07 14:11), всего редактировалось 3 раз(а)

Создавать темы 07-Янв-2014 07:57

[Профиль]  [ЛС] 

feniksqip

Стаж: 5 лет 3 месяца

Сообщений: 26

Симпатии: 1

Описание хорошее но перевод нет ! некачаю

Создавать темы 10-Янв-2014 17:08

[Профиль]  [ЛС] 
Показать сообщения:    
Ответить на тему

Текущее время: 17-Авг 13:06

Часовой пояс: UTC + 5



Вы не можете начинать темы
Вы не можете отвечать на сообщения
Вы не можете редактировать свои сообщения
Вы не можете удалять свои сообщения
Вы не можете голосовать в опросах
Вы не можете прикреплять файлы к сообщениям
Вы не можете скачивать файлы