Гравитация. / Gravity. (Альфонсо Куарон.) [2013 г., Фантастика, Триллер, Драма, Детектив., WEB-DL 720p][Чистый 3вук]

Ответить на тему
 

X3JumperRaZ0R ®

Стаж: 5 лет 1 месяц

Сообщений: 177

Симпатии: 151

Гравитация. / Gravity.
Год выпуска: 2013
Страна: США, Великобритания. Warner Bros.
Жанр: Фантастика, Триллер, Драма, Детектив.
Продолжительность: 01:30:56
Перевод: Профессиональный (полное дублирование) [Чистый 3вук]-Режиссер: Альфонсо Куарон.-В ролях: Сандра Баллок, Джордж Клуни, Эд Харрис, Эрик Мишелс, Башер Саваж...-Описание: Группа астронавтов коротает дни на космической станции. Однажды, когда капитан и его коллега выполняют задание в открытом космосе, обломки взорвавшегося спутника убивают весь экипаж...-
Бюджет: $ 100 000 000
Сборы в США: $ 255 644 000
Сборы в мире: $ 407 800 000 = 663 444 000
Возраст: 12+-Качество: WEB-DL 720p.
Формат: MKV.
Видео кодек: XviD.
Аудио кодек: AC3.
Видео: 3928 kb/s, 1280 x 532.
Аудио: Russian AC3, 192 kb/s (2 ch), English AC3, 384 kb/s (6 ch).

MI

General
Unique ID : 252030705606759739835870068767481680901 (0xBD9B592918534EDC84053ED791F45405)
Complete name : D:\kino-5\555\Gravity (2013) WEB-DL 720p.([email protected])_RaZ0R_xJ.mkv
Format : Matroska
File size : 2.92 GiB
Duration : 1h 30mn
Overall bit rate : 4 595 Kbps
Encoded date : UTC 2014-01-06 14:10:19
Writing application : mkvmerge v5.8.0 ('No Sleep / Pillow') built on Sep 2 2012 15:37:04
Writing library : libebml v1.2.3 + libmatroska v1.3.0
Video
ID : 1
Format : AVC
Format/Info : Advanced Video Codec
Format profile : [email protected]
Format settings, CABAC : No
Format settings, ReFrames : 2 frames
Codec ID : V_MPEG4/ISO/AVC
Duration : 1h 30mn
Bit rate : 3 928 Kbps
Width : 1 280 pixels
Height : 532 pixels
Display aspect ratio : 2.40:1
Frame rate : 23.976 fps
Color space : YUV
Chroma subsampling : 4:2:0
Bit depth : 8 bits
Scan type : Progressive
Bits/(Pixel*Frame) : 0.241
Stream size : 2.50 GiB (85%)
Language : English
Color primaries : BT.709-5, BT.1361, IEC 61966-2-4, SMPTE RP177
Transfer characteristics : BT.709-5, BT.1361
Matrix coefficients : BT.709-5, BT.1361, IEC 61966-2-4 709, SMPTE RP177
Audio #1
ID : 2
Format : AC-3
Format/Info : Audio Coding 3
Mode extension : CM (complete main)
Codec ID : A_AC3
Duration : 1h 30mn
Bit rate mode : Constant
Bit rate : 192 Kbps
Channel(s) : 2 channels
Channel positions : Front: L R
Sampling rate : 48.0 KHz
Bit depth : 16 bits
Compression mode : Lossy
Stream size : 125 MiB (4%)
Language : Russian
Audio #2
ID : 3
Format : AC-3
Format/Info : Audio Coding 3
Mode extension : CM (complete main)
Codec ID : A_AC3
Duration : 1h 30mn
Bit rate mode : Constant
Bit rate : 384 Kbps
Channel(s) : 6 channels
Channel positions : Front: L C R, Side: L R, LFE
Sampling rate : 48.0 KHz
Bit depth : 16 bits
Compression mode : Lossy
Stream size : 250 MiB (8%)
Language : English
Menu
00:00:00.000 : en:1.
00:13:08.000 : en:2.
00:21:33.000 : en:3.
00:29:12.000 : en:4.
00:39:59.000 : en:5.
00:48:26.000 : en:6.
00:57:00.000 : en:7.
01:08:08.000 : en:8.
01:14:48.000 : en:9.
01:23:50.000 : en:10.

Скриншоты





Последний раз редактировалось: X3JumperRaZ0R (2014-01-07 22:51), всего редактировалось 4 раз(а)

Создавать темы 07-Янв-2014 22:31

[Профиль]  [ЛС] 

X3JumperRaZ0R ®

Стаж: 5 лет 1 месяц

Сообщений: 177

Симпатии: 151

это не повтор проверте модераторы...

Создавать темы 07-Янв-2014 22:34

[Профиль]  [ЛС] 

Топик был перенесен из форума Фильмы за 2013 в форум Зарубежное кино

СтАсИкОс

Создавать темы 07-Янв-2014 22:52

 

X3JumperRaZ0R ®

Стаж: 5 лет 1 месяц

Сообщений: 177

Симпатии: 151

Спасибо ) Ну чтож Начилась Раздача...

Создавать темы 07-Янв-2014 22:55

[Профиль]  [ЛС] 

xromed

Стаж: 4 года 1 месяц

Сообщений: 13

Симпатии: 1

Спасибо. Атмосферный фильм и качество ОГОНЬ!)))

Создавать темы 16-Янв-2014 12:53

[Профиль]  [ЛС] 

Salimbek_09

Стаж: 5 лет 4 месяца

Сообщений: 29

хороший фильм

Создавать темы 25-Янв-2014 17:43

[Профиль]  [ЛС] 

saylep

Стаж: 5 лет 5 месяцев

Сообщений: 31

Дайте пожалуйста скорость.

Создавать темы 30-Янв-2014 23:04

[Профиль]  [ЛС] 

X3JumperRaZ0R ®

Стаж: 5 лет 1 месяц

Сообщений: 177

Симпатии: 151

saylep, СКОРОСТЬ РА3ДА4И ПО-ПОЛНОЙ ИДЁТ У ВСЕХ

Создавать темы 31-Янв-2014 01:37

[Профиль]  [ЛС] 

Иннур

Стаж: 4 года 10 месяцев

Сообщений: 40

1 процент остался!

Создавать темы 16-Фев-2014 17:44

[Профиль]  [ЛС] 
Показать сообщения:    
Ответить на тему

Текущее время: 19-Авг 01:20

Часовой пояс: UTC + 5



Вы не можете начинать темы
Вы не можете отвечать на сообщения
Вы не можете редактировать свои сообщения
Вы не можете удалять свои сообщения
Вы не можете голосовать в опросах
Вы не можете прикреплять файлы к сообщениям
Вы не можете скачивать файлы