Буйство цветов: Девушки-самураи / Hyakka Ryouran Samurai Girls (Миядзава Цутому) [TV] [12 из 12] [без хардсаба] [RUS(ext), JAP+SUB] [Special] [12 из 12] [2010 г., приключения, боевые искусства, этти, BDRip] [720p]

Страницы :  1, 2  След.

Ответить на тему
 

MeiDoCorpse ®

Стаж: 4 года 5 месяцев

Сообщений: 222

Симпатии: 14

- Год выпуска: 2010
Страна: Япония
Жанр: приключения, боевые искусства, комедия, романтика, гарем, этти
Продолжительность: ТВ | 12 эп. по 25 мин.-Режиссёр: Сидзуно Кобун
Автор оригинала: Судзуки Акира
Студия: Arms-Описание:
В альтернативной Японии сегунат Токугава вовсе не проиграл в войне Босин, а сохранил и упрочил власть. В Мировых войнах бравые самураи просто порубили корабли и самолеты западных варваров, и в начале XXI века страна успешно продолжает политику шовинизма и изоляции. У подножия священной Фудзи стоит академия Буо, где обучается будущая элита нации, которая одинаково умело пользуется катанами и мобильниками, нагинатами и цифровыми камерами. Школьный Совет возглавляют наследники 25-го сегуна - Ёсихико и Сэн Токугава. Воинские искусства – один из главных предметов академии, и потому туда переводится 16-летний Мунэакира из семьи Ягю - придворных наставников пути меча.
Вот только сразу по прибытии молодой самурай попал в загадочную историю, связанную со странными пророчествами, мрачными подземельями и таинственными девушками, падающими с неба. Получив таким образом первый поцелуй, герой заработал немало жарких взглядов не только от подруги детских лет, принцессы Сэн. Если учесть, что почти все девицы-красавицы Буо носят имена исторических героев, разделяют их достоинства и недостатки, а вдобавок круты до невозможности, то бедному Мунэакире не позавидуешь. И добро бы в сериале действовали только сменившие пол и облик хорошо знакомые Дзюбэй Ягю, Санада Юкимура или Хаттори Хандзо, но при чем тут, скажите, шевалье Д'Артаньян?
© Hollow, World Art-Cсылки: Официальная страница || AniDB || World Art || MAL
Рейтинг: 7.7 из 10 (W-A) || 6.61 (1760) (AniDB) || 7.14 (scored by 27384 users) (MAL)-Качество: BDRip
Энкод: Yousei-raws
Контейнер: mkv
Тип видео: Без хардсаба
Наличие линковки: Нет
Видео: x264 (Hi10p), 1280x720, ~3800 Kbps, 23.976 fps
Аудио: Japanese, Vorbis, 48000Hz, ~256 Kbps, 2ch, в составе контейнера
Аудио: Russian, AAC, 48000Hz, ~192 Kbps, 2ch, внешними файлами | Persona99 [ТВ + 10 SP]
Субтитры: Russian, ASS, внешними файлами | Advantage-

Список эпизодов

01. The First Kiss
02. Naked Reincarnation
03. The True Form of the Master Samurai
04. Hey, Please Kiss Me?
05. The Warrior of Love Appears
06. Attack of the Sea Monster
07. The Shadow Covering Great Japan
08. The Slave of the Kiss
09. The General`s Return
10. The Prison of the Evil Eye
11. The Samurai From France
12. The Goodbye Kiss + The Goodbye Kiss (Skin-coloured Impact Version)
S01. Otome Ureshi Hazukashi Shoshi no Chigiri 1
S02. Otome Ureshi Hazukashi Shoshi no Chigiri 2
S03. Otome Ureshi Hazukashi Shoshi no Chigiri 3
S04. Otome Ureshi Hazukashi Shoshi no Chigiri 4
S05. Otome Ureshi Hazukashi Shoshi no Chigiri 5
S06. Otome Ureshi Hazukashi Shoshi no Chigiri 6
S07. Four-frame Manga 1
S08. Four-frame Manga 2
S09. Four-frame Manga 3
S10. Four-frame Manga 4
S11. Four-frame Manga 5
S12. Four-frame Manga 6

Скриншоты

Подробные тех. данные

General
Unique ID : 253167030867391487497815812181215928294 (0xBE763252465027E980CE640DDB53DFE6)
Complete name : ***\Hyakka Ryouran Samurai Girls [BD] [720p]\[Yousei-raws] Hyakka Ryouran Samurai Girls 01 [BDrip 1280x720 x264 Vorbis].mkv
Format : Matroska
Format version : Version 2
File size : 703 MiB
Duration : 23mn 42s
Overall bit rate mode : Variable
Overall bit rate : 4 149 Kbps
Encoded date : UTC 2012-10-10 16:45:40
Writing application : mkvmerge v2.9.7 ('Tenderness') built on Jul 1 2009 18:43:35
Writing library : libebml v0.7.7 + libmatroska v0.8.1
Video
ID : 1
Format : AVC
Format/Info : Advanced Video Codec
Format profile : High [email protected]
Format settings, CABAC : Yes
Format settings, ReFrames : 9 frames
Codec ID : V_MPEG4/ISO/AVC
Duration : 23mn 42s
Bit rate : 3 810 Kbps
Width : 1 280 pixels
Height : 720 pixels
Display aspect ratio : 16:9
Frame rate mode : Constant
Frame rate : 23.976 fps
Color space : YUV
Chroma subsampling : 4:2:0
Bit depth : 10 bits
Scan type : Progressive
Bits/(Pixel*Frame) : 0.172
Stream size : 646 MiB (92%)
Writing library : x264 core 125 r2200 999b753
Encoding settings : cabac=1 / ref=9 / deblock=1:-2:-2 / analyse=0x3:0x133 / me=umh / subme=9 / psy=1 / psy_rd=0.90:0.00 / mixed_ref=1 / me_range=24 / chroma_me=1 / trellis=2 / 8x8dct=1 / cqm=0 / deadzone=21,11 / fast_pskip=1 / chroma_qp_offset=-2 / threads=6 / lookahead_threads=1 / sliced_threads=0 / nr=0 / decimate=0 / interlaced=0 / bluray_compat=0 / constrained_intra=0 / bframes=8 / b_pyramid=2 / b_adapt=2 / b_bias=0 / direct=1 / weightb=1 / open_gop=0 / weightp=2 / keyint=250 / keyint_min=23 / scenecut=40 / intra_refresh=0 / rc=crf / mbtree=0 / crf=15.7 / qcomp=0.70 / qpmin=9 / qpmax=40 / qpstep=4 / ip_ratio=1.40 / pb_ratio=1.30 / aq=1:0.90
Default : Yes
Forced : No
Audio
ID : 2
Format : Vorbis
Format settings, Floor : 1
Codec ID : A_VORBIS
Duration : 23mn 42s
Bit rate mode : Variable
Bit rate : 256 Kbps
Channel(s) : 2 channels
Sampling rate : 48.0 KHz
Compression mode : Lossy
Stream size : 43.4 MiB (6%)
Writing library : libVorbis (Schaufenugget) (20101101 (Schaufenugget))
Language : Japanese
Default : Yes
Forced : No
По просьбе FankyВторой сезон


Последний раз редактировалось: MeiDoCorpse (2014-01-20 15:13), всего редактировалось 5 раз(а)

Создавать темы 07-Янв-2014 23:33

[Профиль]  [ЛС] 

bumblebee

Стаж: 7 лет 2 месяца

Сообщений: 97

Симпатии: 1

MeiDoCorpse, а второй сезон будите выкладывать???

Создавать темы 08-Янв-2014 06:01

[Профиль]  [ЛС] 

MeiDoCorpse ®

Стаж: 4 года 5 месяцев

Сообщений: 222

Симпатии: 14

bumblebee, будет, наверное...

Создавать темы 08-Янв-2014 12:06

[Профиль]  [ЛС] 

sergeek

Стаж: 4 года

Сообщений: 34

Симпатии: 1

MeiDoCorpse, а второй сезон будите выкладывать???
bumblebee, будет, наверное...
третьим лицом отвечаете? :)

Создавать темы 18-Янв-2014 12:11

[Профиль]  [ЛС] 

Rambotnik

Стаж: 6 лет 5 месяцев

Сообщений: 1274

Симпатии: 81

sergeek, имеется в виду "второй сезон будет, наверное".

Создавать темы 18-Янв-2014 17:25

[Профиль]  [ЛС] 

sergeek

Стаж: 4 года

Сообщений: 34

Симпатии: 1

sergeek, имеется в виду "второй сезон будет, наверное".
Он уже есть. Я просто предположил, что автор ошибся при поиске информации насчет второго сезона (там шаблон немного другой ("Hyakka Ryouran: Samurai Bride")) и в случае подтверждения хотел сообщить ему об этом.

Создавать темы 18-Янв-2014 19:16

[Профиль]  [ЛС] 

Rambotnik

Стаж: 6 лет 5 месяцев

Сообщений: 1274

Симпатии: 81

sergeek, можете не сомневаться, этот автор достаточно компетентен в этом вопросе)

Создавать темы 18-Янв-2014 19:17

[Профиль]  [ЛС] 

farik9193

Стаж: 4 года 11 месяцев

Сообщений: 501

Симпатии: 47

вот что нужно смотреть в БД !

Создавать темы 20-Янв-2014 00:57

[Профиль]  [ЛС] 

Лёша

Стаж: 4 года 4 месяца

Сообщений: 20

эттифилы.... как вы это смотрите, никакого сюжета.....

Создавать темы 27-Фев-2014 23:50

[Профиль]  [ЛС] 

Злодей

Стаж: 4 года 2 месяца

Сообщений: 1

С раздачи не уходите пожалуйста,хотелось бы до качать )

Создавать темы 01-Апр-2014 16:26

[Профиль]  [ЛС] 

RocknRollа

Стаж: 3 года 8 месяцев

Сообщений: 38

Симпатии: 6

Раздающие, не ограничивайте отдачу блин, 8-ой день по 1 кб раздаёте...

Создавать темы 30-Апр-2014 12:21

[Профиль]  [ЛС] 

RocknRollа

Стаж: 3 года 8 месяцев

Сообщений: 38

Симпатии: 6

Я в этом году его докачаю интересно? http://img.tas-ix.net/images/2014/05/06/bRd4oCy8l.png

Создавать темы 06-Май-2014 03:35

[Профиль]  [ЛС] 

Lyoman

Стаж: 5 лет 9 месяцев

Сообщений: 77

Симпатии: 3

я тоже так мучился )

Создавать темы 06-Май-2014 06:04

[Профиль]  [ЛС] 

RocknRollа

Стаж: 3 года 8 месяцев

Сообщений: 38

Симпатии: 6

Lyoman, ПРосто мне кажется что все поставили ограничение отдачи. Вот и всё http://img.tas-ix.net/images/2014/05/06/EdxBptg.png

Создавать темы 06-Май-2014 21:03

[Профиль]  [ЛС] 

freeman171

Стаж: 6 лет 9 месяцев

Сообщений: 51

На раздачу вернитесь!

Создавать темы 04-Янв-2015 09:36

[Профиль]  [ЛС] 
Показать сообщения:    
Ответить на тему

Текущее время: 22-Окт 00:40

Часовой пояс: UTC + 5



Вы не можете начинать темы
Вы не можете отвечать на сообщения
Вы не можете редактировать свои сообщения
Вы не можете удалять свои сообщения
Вы не можете голосовать в опросах
Вы не можете прикреплять файлы к сообщениям
Вы не можете скачивать файлы