Джиперс Криперс / Jeepers Creepers (Виктор Сальва) [2001 г., триллер, ужасы, драма, DVDRip]

Ответить на тему
 

slaiderUZ ®

Стаж: 5 лет 8 месяцев

Сообщений: 172

Симпатии: 6

Джиперс Криперс / Jeepers Creepers
Год выпуска: 2001
Страна: США
Жанр: триллер, ужасы, драма
Продолжительность: 01:26:58
Перевод: Любительский (одноголосый)
Режиссер: Виктор Сальва
В ролях: Джина Филипс, Джастин Лонг, Джонатан Брек, Айлин Бреннан, Патриция Белчер
Описание: Весело болтая, парень по имени Дэрри и его сестра Триш едут в своём автомобиле по трассе. Неожиданно сзади к ним подъезжает грузовик времен Второй мировой, начинает сигналить и обгоняет их. Проезжая мимо заброшенной церкви, они видят тот самый грузовик, а рядом с ним замечают зловещую фигуру странного человека в тёмном плаще и в шляпе, который сбрасывает в трубу большие окровавленные свёртки, похожие на человеческие фигуры. Поняв, что его заметили, странный незнакомец садится в свой ржавый грузовик и начинает преследовать испуганных подростков. Когда героям, наконец, удаётся оторваться от погони, заинтригованный Дэрри уговаривает свою сестру вернуться к церкви и посмотреть на таинственный свёрток. Они возвращаются, и Дэрри пытается заглянуть в подвал через трубу, но, испугавшись крыс, подскальзывается и скатывается вниз. Он приземляется в тёмном подвальном помещении, возле свёртка, который неожиданно начинает шевелиться. Подозревая что-то ужасное, Дэрри вскрывает свёрток и находит в нём молодого парня, чей живот был разрезан и зашит грубым швом; парень умирает у него на руках...............
Качество: DVDRip
Формат: AVI
Видео: AVC, 600 Kbps, 720x400, 25.000 fps
Аудио: AAC. 173kbps, (6ch), 44.1 KHz

Медиа Инфо

Video
Format : AVC
Format/Info : Advanced Video Codec
Format profile : [email protected]
Format settings, CABAC : Yes
Format settings, ReFrames : 4 frames
Format settings, GOP : M=4, N=50
Codec ID : 7
Duration : 1h 26mn
Bit rate : 600 Kbps
Width : 720 pixels
Height : 400 pixels
Display aspect ratio : 16:9
Frame rate mode : Constant
Frame rate : 25.000 fps
Color space : YUV
Chroma subsampling : 4:2:0
Bit depth : 8 bits
Scan type : Progressive
Bits/(Pixel*Frame) : 0.083
Stream size : 374 MiB (77%)
Writing library : x264 core 120
Encoding settings : cabac=1 / ref=3 / deblock=1:0:0 / analyse=0x3:0x113 / me=hex / subme=7 / psy=1 / psy_rd=1.00:0.00 / mixed_ref=1 / me_range=16 / chroma_me=1 / trellis=1 / 8x8dct=1 / cqm=0 / deadzone=21,11 / fast_pskip=1 / chroma_qp_offset=-2 / threads=3 / sliced_threads=0 / nr=0 / decimate=1 / interlaced=0 / bluray_compat=0 / constrained_intra=0 / bframes=3 / b_pyramid=2 / b_adapt=1 / b_bias=0 / direct=1 / weightb=1 / open_gop=0 / weightp=2 / keyint=50 / keyint_min=5 / scenecut=40 / intra_refresh=0 / rc_lookahead=40 / rc=abr / mbtree=1 / bitrate=600 / ratetol=1.0 / qcomp=0.60 / qpmin=0 / qpmax=69 / qpstep=4 / ip_ratio=1.40 / aq=1:1.00
Audio
Format : AAC
Format/Info : Advanced Audio Codec
Format profile : LC
Codec ID : 10
Duration : 1h 26mn
Bit rate : 173 Kbps
Channel(s) : 6 channels
Channel positions : Front: L C R, Side: L R, LFE
Sampling rate : 44.1 KHz
Compression mode : Lossy
Delay relative to video : 40ms
Stream size : 113 MiB (23%)

Скриншоты


_________________
Подпись отключена за нарушение правил форума


Последний раз редактировалось: slaiderUZ (2014-01-09 13:38), всего редактировалось 3 раз(а)

Создавать темы 08-Янв-2014 19:27

[Профиль]  [ЛС] 

victor0778

Стаж: 6 лет 7 месяцев

Сообщений: 1670

Симпатии: 142

slaiderUZ, медиа инфо выложите

Создавать темы 09-Янв-2014 01:48

[Профиль]  [ЛС] 

slaiderUZ ®

Стаж: 5 лет 8 месяцев

Сообщений: 172

Симпатии: 6

slaiderUZ, медиа инфо выложите
Video
Format : AVC
Format/Info : Advanced Video Codec
Format profile : [email protected]
Format settings, CABAC : Yes
Format settings, ReFrames : 4 frames
Format settings, GOP : M=4, N=50
Codec ID : 7
Duration : 1h 26mn
Bit rate : 600 Kbps
Width : 720 pixels
Height : 400 pixels
Display aspect ratio : 16:9
Frame rate mode : Constant
Frame rate : 25.000 fps
Color space : YUV
Chroma subsampling : 4:2:0
Bit depth : 8 bits
Scan type : Progressive
Bits/(Pixel*Frame) : 0.083
Stream size : 374 MiB (77%)
Writing library : x264 core 120
Encoding settings : cabac=1 / ref=3 / deblock=1:0:0 / analyse=0x3:0x113 / me=hex / subme=7 / psy=1 / psy_rd=1.00:0.00 / mixed_ref=1 / me_range=16 / chroma_me=1 / trellis=1 / 8x8dct=1 / cqm=0 / deadzone=21,11 / fast_pskip=1 / chroma_qp_offset=-2 / threads=3 / sliced_threads=0 / nr=0 / decimate=1 / interlaced=0 / bluray_compat=0 / constrained_intra=0 / bframes=3 / b_pyramid=2 / b_adapt=1 / b_bias=0 / direct=1 / weightb=1 / open_gop=0 / weightp=2 / keyint=50 / keyint_min=5 / scenecut=40 / intra_refresh=0 / rc_lookahead=40 / rc=abr / mbtree=1 / bitrate=600 / ratetol=1.0 / qcomp=0.60 / qpmin=0 / qpmax=69 / qpstep=4 / ip_ratio=1.40 / aq=1:1.00
Audio
Format : AAC
Format/Info : Advanced Audio Codec
Format profile : LC
Codec ID : 10
Duration : 1h 26mn
Bit rate : 173 Kbps
Channel(s) : 6 channels
Channel positions : Front: L C R, Side: L R, LFE
Sampling rate : 44.1 KHz
Compression mode : Lossy
Delay relative to video : 40ms
Stream size : 113 MiB (23%)

_________________
Подпись отключена за нарушение правил форума

Создавать темы 09-Янв-2014 10:54

[Профиль]  [ЛС] 

Топик был перенесен из форума Фильмы до 2010 в форум Видео для мобильных устройств
Machine

Создавать темы 10-Фев-2015 18:16

 
Показать сообщения:    
Ответить на тему

Текущее время: 20-Сен 03:16

Часовой пояс: UTC + 5



Вы не можете начинать темы
Вы не можете отвечать на сообщения
Вы не можете редактировать свои сообщения
Вы не можете удалять свои сообщения
Вы не можете голосовать в опросах
Вы не можете прикреплять файлы к сообщениям
Вы не можете скачивать файлы