Кровавая графиня - Батори / Батори / Bathory (Юрай Якубиско / Juraj Jakubisko) [2008, Великобритания, Чехия, Венгрия, Словакия, драма, история, HDRip] MVO (Инис) + Original

Страницы :  1, 2  След.

Ответить на тему
 

kat222000 ®

Стаж: 6 лет 5 месяцев

Сообщений: 608

Симпатии: 1055

Кровавая графиня - Батори / Батори / Bathory«История великой садистки...»- -Год выпуска: 2008
Страна: Великобритания, Чехия, Венгрия, Словакия
Жанр: драма, история
Продолжительность: 02:20:37
Перевод: Профессиональный (многоголосый, закадровый) "Инис"-Режиссер: Юрай Якубиско / Juraj Jakubisko-В ролях: Анна Фрил, Карел Роден, Винсент Риган, Ханс Мэтисон, Дина Горватова, Франко Неро, Энтони Бирн, Болек Поливка, Иржи Мадль, Моника Гильмерова, Луцье Вондрацкова-Описание: 17-й век. Европа бушует, раздираемая на части постоянными войнами и религиозными конфликтами. Венгерская графиня Элизавета Батори принесла своей стране поистине одиозную славу. Она вошла в историю человечества как величайшая женщина-убийца. Согласно легенде, перед казнью она пытала своих жертв и в буквальном смысле слова купалась в их крови. Но были ли все эти ужасы на самом деле? Кем была в реальной жизни графиня Элизабет Батори: невинной жертвой предрассудков ужасного времени религиозных войн и «охоты на ведьм» или и вправду безжалостной убийцей, кошмарные деяния которой породили впоследствии легенды о вампирах?- -Доп. информация: Фильм озвучен студией "Инис" по заказу компании "Централ Партнершип".
Качество: HDRip
Формат: AVI
Видео кодек: XviD
Аудио кодек: AC3
Видео: 720x320 (2.25:1), 23.976 fps, XviD, 1100 kbps, 0.20 bit/pixel
Аудио #1: 48 kHz, AC3 Dolby Digital, 2/0 (L,R) ch, 192 kbps, русская
Аудио #2: 48 kHz, AC3 Dolby Digital, 2/0 (L,R) ch, 192 kbps, Original (Eng)-

Знаете ли вы, что...

Елизавета Батори, называемая также Чахтицкая пани или Кровавая Графиня — венгерская графиня, печально знаменитая массовыми убийствами молодых девушек. Является, согласно Книге рекордов Гиннесса, самым массовым серийным убийцей. Количество жертв: ~650.
-

MediaInfo

General
Complete name : E:\Фильмы\Видео\Bathory.HDRip.avi
Format : AVI
Format/Info : Audio Video Interleave
File size : 1.47 GiB
Duration : 2h 20mn
Overall bit rate : 1 499 Kbps
Writing application : VirtualDubMod 1.5.10.3 | www.virtualdub-fr.org || (build 2550/release)
Writing library : VirtualDubMod build 2550/release
Video
ID : 0
Format : MPEG-4 Visual
Format profile : Advanced [email protected]
Format settings, BVOP : 1
Format settings, QPel : No
Format settings, GMC : No warppoints
Format settings, Matrix : Default (MPEG)
Codec ID : XVID
Codec ID/Hint : XviD
Duration : 2h 20mn
Bit rate : 1 101 Kbps
Width : 720 pixels
Height : 320 pixels
Display aspect ratio : 2.25:1
Frame rate : 23.976 fps
Color space : YUV
Chroma subsampling : 4:2:0
Bit depth : 8 bits
Scan type : Progressive
Compression mode : Lossy
Bits/(Pixel*Frame) : 0.199
Stream size : 1.08 GiB (73%)
Writing library : XviD 58
Audio #1
ID : 1
Format : AC-3
Format/Info : Audio Coding 3
Mode extension : CM (complete main)
Format settings, Endianness : Big
Codec ID : 2000
Duration : 2h 20mn
Bit rate mode : Constant
Bit rate : 192 Kbps
Channel(s) : 2 channels
Channel positions : Front: L R
Sampling rate : 48.0 KHz
Bit depth : 16 bits
Compression mode : Lossy
Stream size : 193 MiB (13%)
Alignment : Split accross interleaves
Interleave, duration : 42 ms (1.00 video frame)
Interleave, preload duration : 500 ms
Audio #2
ID : 2
Format : AC-3
Format/Info : Audio Coding 3
Mode extension : CM (complete main)
Format settings, Endianness : Big
Codec ID : 2000
Duration : 2h 20mn
Bit rate mode : Constant
Bit rate : 192 Kbps
Channel(s) : 2 channels
Channel positions : Front: L R
Sampling rate : 48.0 KHz
Bit depth : 16 bits
Compression mode : Lossy
Stream size : 193 MiB (13%)
Alignment : Split accross interleaves
Interleave, duration : 42 ms (1.00 video frame)
Interleave, preload duration : 500 ms
-

Скриншоты



Последний раз редактировалось: kat222000 (2014-01-08 20:05), всего редактировалось 1 раз

Создавать темы 08-Янв-2014 19:52

[Профиль]  [ЛС] 

kat222000 ®

Стаж: 6 лет 5 месяцев

Сообщений: 608

Симпатии: 1055

Через Час Будет Очень Интересный Арт-хаус Релиз.....

Создавать темы 08-Янв-2014 19:57

[Профиль]  [ЛС] 

victor0778

Стаж: 6 лет 7 месяцев

Сообщений: 1670

Симпатии: 142

Через Час Будет Очень Интересный Арт-хаус Релиз.....
мне прям страшно от таких слов, надо бдить, а то вдруг что то такое, эдакое выложите mp

Создавать темы 08-Янв-2014 20:04

[Профиль]  [ЛС] 

kat222000 ®

Стаж: 6 лет 5 месяцев

Сообщений: 608

Симпатии: 1055

Через Час Будет Очень Интересный Арт-хаус Релиз.....
мне прям страшно от таких слов, надо бдить, а то вдруг что то такое, эдакое выложите mp
Питер Гринуэй Если Вы Не Против........

Создавать темы 08-Янв-2014 20:12

[Профиль]  [ЛС] 

СтАсИкОс

Стаж: 6 лет 8 месяцев

Сообщений: 314

Симпатии: 20

kat222000, Ждем, надеюсь в рамках разумного, как раз нечего посмотреть в последние дни новогодних каникул)

Создавать темы 08-Янв-2014 20:13

[Профиль]  [ЛС] 

victor0778

Стаж: 6 лет 7 месяцев

Сообщений: 1670

Симпатии: 142

kat222000, залили бы хорошее, сильное кино Время цыган / Dom za vesanje

Создавать темы 08-Янв-2014 20:17

[Профиль]  [ЛС] 

kat222000 ®

Стаж: 6 лет 5 месяцев

Сообщений: 608

Симпатии: 1055

kat222000, залили бы хорошее, сильное кино Время цыган / Dom za vesanje
Не Вопрос....Ждите....

Создавать темы 08-Янв-2014 20:19

[Профиль]  [ЛС] 

victor0778

Стаж: 6 лет 7 месяцев

Сообщений: 1670

Симпатии: 142

Питер Гринуэй Если Вы Не Против........
это случаем не Гольциус и Пеликанья компания?

Создавать темы 08-Янв-2014 20:19

[Профиль]  [ЛС] 

СтАсИкОс

Стаж: 6 лет 8 месяцев

Сообщений: 314

Симпатии: 20

victor0778, У меня есть, фильм на любителя, но вдруг такие найдутся .. завтра оформим!

Создавать темы 08-Янв-2014 20:20

[Профиль]  [ЛС] 

kat222000 ®

Стаж: 6 лет 5 месяцев

Сообщений: 608

Симпатии: 1055

kat222000, Ждем, надеюсь в рамках разумного, как раз нечего посмотреть в последние дни новогодних каникул)
Пару Релизов...Один Из Них Российский Фильм...

Создавать темы 08-Янв-2014 20:21

[Профиль]  [ЛС] 

victor0778

Стаж: 6 лет 7 месяцев

Сообщений: 1670

Симпатии: 142

СтАсИкОс, Посмотрел бы с удовольствием, только понять не могу, почему его нет в топ 250 по IMDb.

Создавать темы 08-Янв-2014 20:22

[Профиль]  [ЛС] 

kat222000 ®

Стаж: 6 лет 5 месяцев

Сообщений: 608

Симпатии: 1055

kat222000, залили бы хорошее, сильное кино Время цыган / Dom za vesanje
Время цыган / Дом для повешения / Time Of The Gypsies / Dom za vesanje (Эмир Кустурица / Emir Kusturica) [1988, Югославия, драма, DVDRip] (Театральная версия) Dub + MVO
Устроит????

Создавать темы 08-Янв-2014 20:24

[Профиль]  [ЛС] 

СтАсИкОс

Стаж: 6 лет 8 месяцев

Сообщений: 314

Симпатии: 20

кстати тоже удивился, рейтинг позволяет быть ближе к первой сотне ...

Создавать темы 08-Янв-2014 20:24

[Профиль]  [ЛС] 

victor0778

Стаж: 6 лет 7 месяцев

Сообщений: 1670

Симпатии: 142

kat222000, вполне

Создавать темы 08-Янв-2014 20:26

[Профиль]  [ЛС] 

СтАсИкОс

Стаж: 6 лет 8 месяцев

Сообщений: 314

Симпатии: 20

victor0778, Если не ошибаюсь, порог для топ-250, примерно 20 тысяч голосов, а их у "Время цыган" всего 13000

Создавать темы 08-Янв-2014 20:31

[Профиль]  [ЛС] 
Показать сообщения:    
Ответить на тему

Текущее время: 21-Сен 10:17

Часовой пояс: UTC + 5



Вы не можете начинать темы
Вы не можете отвечать на сообщения
Вы не можете редактировать свои сообщения
Вы не можете удалять свои сообщения
Вы не можете голосовать в опросах
Вы не можете прикреплять файлы к сообщениям
Вы не можете скачивать файлы