Приключения Ам Няма / Om Nom Stories / Эпизоды 0-25 (?) (ООО «Тунбокс») [2011-2013 г., Анимация, SATRip]

Ответить на тему
 

Slapper ®

Стаж: 3 года 10 месяцев

Сообщений: 2193

Симпатии: 213

Приключения Ам Няма / Om Nom Stories- Год выпуска: 2011-2013
Страна: США
Жанр: Анимация
Продолжительность: ~0:01:30
Перевод: Отсутствует-Режиссер: ООО «Тунбокс»-В ролях: Ам Ням
Описание: Приключения милого маленького зеленого монстра Ам Няма из игры Cut the Rope-Доп. информация: Буду добавлять серии. Не забывайте обновлять торрент-файл.-Качество: SATRip
Формат: MP4
Видео кодек: MPEG4
Аудио кодек: AAC
Видео: 1280х720, 25,000 fps, [email protected], ~1500 kbps
Аудио: AAC, 44,1 kHz, ~192 kbps, 2ch, stereo

Кадры из сериала (Скриншоты)




Список серий

00.Original pilot episode
01.Strange Delivery
02.Bath time
03. Favorite Food
04.Candy Prescription
05.Halloween Special
06.Magic Tricks
07.Arts and Crafts
08.Candy Can
09.Christmas Special
10.Robo Friend
11.Time Travel
12.The Middle Ages
13.The Renaissance
14. Pirate Ship
15. Ancient Egypt
16.Ancient Greecе
17.The Stone Age
18. Disco Era
19. Wild West
20. Home Sweet Home

МедиаИнфо

Общее
Полное имя : C:\Downloads\Видео\01 - Strange Delivery.mp4
Формат : MPEG-4
Профиль формата : Base Media / Version 2
Идентификатор кодека : mp42
Размер файла : 16,8 Мбайт
Продолжительность : 1 м. 26 с.
Режим общего битрейта : Переменный
Общий поток : 1623 Кбит/сек
Дата кодирования : UTC 2013-04-08 08:07:34
Дата пометки : UTC 2013-04-08 08:07:34
gsst : 0
gstd : 87028
gssd : B4A7D6F6AHH1372268347197092
gshh : r10---sn-n8v7sne7.c.youtube.com
Видео
Идентификатор : 1
Формат : AVC
Формат/Информация : Advanced Video Codec
Профиль формата : [email protected]
Параметр CABAC формата : Да
Параметр ReFrames формата : 1 кадр
Идентификатор кодека : avc1
Идентификатор кодека/Информация : Advanced Video Coding
Продолжительность : 1 м. 26 с.
Битрейт : 1428 Кбит/сек
Максимальный битрейт : 3159 Кбит/сек
Ширина : 1280 пикселей
Высота : 720 пикселей
Соотношение сторон : 16:9
Режим частоты кадров : Постоянный
Частота кадров : 25,000 кадров/сек
Цветовое пространство : YUV
Субдискретизация насыщенности : 4:2:0
Битовая глубина : 8 бит
Тип развёртки : Прогрессивная
Бит/(Пиксели*Кадры) : 0.062
Размер потока : 14,8 Мбайт (88%)
Дата пометки : UTC 2013-04-08 08:07:40
Аудио
Идентификатор : 2
Формат : AAC
Формат/Информация : Advanced Audio Codec
Профиль формата : LC
Идентификатор кодека : 40
Продолжительность : 1 м. 26 с.
Вид битрейта : Переменный
Битрейт : 192 Кбит/сек
Максимальный битрейт : 201 Кбит/сек
Каналы : 2 канала
Расположение каналов : Front: L R
Частота : 44,1 КГц
Метод сжатия : С потерями
Размер потока : 1,99 Мбайт (12%)
Заголовок : IsoMedia File Produced by Google, 5-11-2011
Дата кодирования : UTC 2013-04-08 08:07:38
Дата пометки : UTC 2013-04-08 08:07:40
Добавлены 13,14,15,16,17,18,19,20,21,22,23,24,25 серии!


Последний раз редактировалось: Slapper (2014-02-06 13:39), всего редактировалось 7 раз(а)

Создавать темы 08-Янв-2014 22:26

[Профиль]  [ЛС] 

x3m4ever

Стаж: 5 лет 3 месяца

Сообщений: 1

Моему сыну нравиться этот мультик, сыну 2 годика, спасибо! mb

Создавать темы 08-Янв-2014 22:44

[Профиль]  [ЛС] 

Slapper ®

Стаж: 3 года 10 месяцев

Сообщений: 2193

Симпатии: 213

x3m4ever, да не за что )

Создавать темы 08-Янв-2014 22:51

[Профиль]  [ЛС] 

Топик был перенесен из форума Мультфильмы в форум Мультсериалы

СтАсИкОс

Создавать темы 08-Янв-2014 23:14

 

Slapper ®

Стаж: 3 года 10 месяцев

Сообщений: 2193

Симпатии: 213

добавил еще 4 серии... обновите торрент-файл

Создавать темы 12-Янв-2014 18:39

[Профиль]  [ЛС] 

Slapper ®

Стаж: 3 года 10 месяцев

Сообщений: 2193

Симпатии: 213

Добавил еще 5 серий, обновите торрент-файл

Создавать темы 20-Янв-2014 21:19

[Профиль]  [ЛС] 

Slapper ®

Стаж: 3 года 10 месяцев

Сообщений: 2193

Симпатии: 213

добавил 13-20 серии

Создавать темы 31-Янв-2014 12:22

[Профиль]  [ЛС] 

Slapper ®

Стаж: 3 года 10 месяцев

Сообщений: 2193

Симпатии: 213

завтра будет раздача

Создавать темы 31-Янв-2014 23:51

[Профиль]  [ЛС] 

uzabcd

Стаж: 7 лет 1 месяц

Сообщений: 26

Симпатии: 2

на китайских двд-плеерах будет показывать?

Создавать темы 11-Фев-2014 10:07

[Профиль]  [ЛС] 

Alisa-Mor

Стаж: 3 года 10 месяцев

Сообщений: 11

простите,а как обновить торрент-файлы?

Создавать темы 11-Фев-2014 15:49

[Профиль]  [ЛС] 
Показать сообщения:    
Ответить на тему

Текущее время: 21-Сен 01:09

Часовой пояс: UTC + 5



Вы не можете начинать темы
Вы не можете отвечать на сообщения
Вы не можете редактировать свои сообщения
Вы не можете удалять свои сообщения
Вы не можете голосовать в опросах
Вы не можете прикреплять файлы к сообщениям
Вы не можете скачивать файлы