Justin Timberlake - Live & Rock In Rio 2013 [2013 г., Live Show, HDRip]

Ответить на тему
 

diyor-101 ®

Стаж: 5 лет 10 месяцев

Сообщений: 112

Симпатии: 14

Justin Timberlake - Live & Rock In Rio 2013 Год выпуска: 2013
Страна: Rio
Жанр: Live Show
Продолжительность: 01:42:33-Качество: HDRip
Формат: MP4
Видео кодек: H.26x
Аудио кодек: AAC
Видео: H.264, 1280x720, bit rate 3282 Kbps, 29.970 fps
Аудио: AAC, bit rate 165 Kbps, 2 channels, 48 KHz

Media Info

General
Format : MPEG-4
Format profile : Base Media
Codec ID : isom
File size : 2.49 GiB
Duration : 1h 42mn
Overall bit rate mode : Variable
Overall bit rate : 3 475 Kbps
Encoded date : UTC 2013-09-16 11:08:50
Tagged date : UTC 2013-09-16 11:08:50
Writing application : Lavf54.63.104
Video #1
ID : 1
Format : AVC
Format/Info : Advanced Video Codec
Format profile : [email protected]
Format settings, CABAC : Yes
Format settings, ReFrames : 1 frame
Codec ID : avc1
Codec ID/Info : Advanced Video Coding
Duration : 1h 42mn
Bit rate : 3 282 Kbps
Width : 1 280 pixels
Height : 720 pixels
Display aspect ratio : 16:9
Frame rate mode : Constant
Frame rate : 29.970 fps
Color space : YUV
Chroma subsampling : 4:2:0
Bit depth : 8 bits
Scan type : Progressive
Bits/(Pixel*Frame) : 0.119
Stream size : 2.37 GiB (95%)
Writing library : x264 core 129
Encoded date : UTC 2013-09-16 11:08:50
Tagged date : UTC 2013-09-16 11:08:50
Audio #2
ID : 2
Format : AAC
Format/Info : Advanced Audio Codec
Format profile : LC
Codec ID : 40
Duration : 1h 42mn
Duration_FirstFrame : 64ms
Bit rate mode : Variable
Bit rate : 165 Kbps
Maximum bit rate : 192 Kbps
Channel(s) : 2 channels
Channel positions : Front: L R
Sampling rate : 48.0 KHz
Compression mode : Lossy
Stream size : 121 MiB (5%)
Encoded date : UTC 2013-09-16 11:08:50
Tagged date : UTC 2013-09-16 11:08:50
-

Скриншоты






Создавать темы 09-Янв-2014 02:48

[Профиль]  [ЛС] 
Показать сообщения:    
Ответить на тему

Текущее время: 20-Ноя 09:04

Часовой пояс: UTC + 5



Вы не можете начинать темы
Вы не можете отвечать на сообщения
Вы не можете редактировать свои сообщения
Вы не можете удалять свои сообщения
Вы не можете голосовать в опросах
Вы не можете прикреплять файлы к сообщениям
Вы не можете скачивать файлы