Облачно, возможны осадки: Месть ГМО / Cloudy 2: Revenge of the Leftovers (Коуди Камерон, Крис Пирн / Cody Cameron, Kris Pearn) [2013, мультфильм, фантастика, комедия, семейный, HDRip] [Чистый звук]

Тема закрыта
 

Suxrob89 ®

Стаж: 7 лет 4 месяца

Сообщений: 933

Симпатии: 564

-Облачно, возможны осадки: Месть ГМО / Cloudy 2: Revenge of the Leftovers-«Something big was leftover»- Страна: США
Жанр: мультфильм, фантастика, комедия, семейный
Продолжительность: 01:34:49
Год выпуска: 2013
Перевод: Дублированное [Чистый звук]
Русские субтитры: нет-Режиссёр: Коуди Камерон, Крис Пирн / Cody Cameron, Kris Pearn-В ролях: Билл Хейдер, Анна Фэрис, Джеймс Каан, Уилл Форте, Энди Сэмберг, Бенджамин Брэтт, Нил Патрик Харрис, Терри Крюс, Кристен Шол, Коуди Камерон-Описание: Все жители острова Поплавок покинули родной дом после событий предыдущего мультфильма. Главный герой Флинт Локвуд теперь работает в компании The Live Corp на своего кумира Честера. Но ему придется оставить свой пост когда он узнает, что его печально-известная машина все ещё работает и производит на свет опасных гибридов. Флинту предстоит ещё раз спасти мир и не дать коварной машине распространить громадную еду по всему миру.- -Качество: HDRip [Рип с BDRip 720p]
Формат: AVI
Видео:1742 kb/s, 720x304
Звук: AC3, 448 kb/s (6 ch)
Субтитры: отсутствуют

Подробные технические данные

Полное имя : D:\Oblachno.Mest.GMO.2013.D.HDRip.1400MB.avi
Формат : AVI
Формат/Информация : Audio Video Interleave
Размер файла : 1,46 Гбайт
Продолжительность : 1 ч. 34 м.
Общий поток : 2199 Кбит/сек
Программа кодирования : VirtualDubMod 1.5.10.2 (build 2540/release)
Библиотека кодирования : VirtualDubMod build 2540/release
Видео
Идентификатор : 0
Формат : MPEG-4 Visual
Профиль формата : Advanced [email protected]
Параметр BVOP формата : 2
Параметр QPel формата : Нет
Параметр GMC формата : Без точки перехода
Параметр матрицы формата : Выборочная
Идентификатор кодека : XVID
Идентификатор кодека/Подсказка : XviD
Продолжительность : 1 ч. 34 м.
Битрейт : 1742 Кбит/сек
Ширина : 720 пикселей
Высота : 304 пикселя
Соотношение сторон : 2,35:1
Частота кадров : 23,976 кадра/сек
Цветовое пространство : YUV
Субдискретизация насыщенности : 4:2:0
Битовая глубина : 8 бит
Тип развёртки : Прогрессивная
Метод сжатия : С потерями
Бит/(Пиксели*Кадры) : 0.332
Размер потока : 1,15 Гбайт (79%)
Библиотека кодирования : XviD 1.2.1 (UTC 2008-12-04)
Аудио
Идентификатор : 1
Формат : AC-3
Формат/Информация : Audio Coding 3
Расширение режима : CM (complete main)
Параметр Endianness формата : Big
Идентификатор кодека : 2000
Продолжительность : 1 ч. 34 м.
Вид битрейта : Постоянный
Битрейт : 448 Кбит/сек
Каналы : 6 каналов
Расположение каналов : Front: L C R, Side: L R, LFE
Частота : 48,0 КГц
Битовая глубина : 16 бит
Метод сжатия : С потерями
Размер потока : 304 Мбайт (20%)
Выравнивание : Разделение по промежуткам
Продолжительность промежутка : 42 мс. (1,00 видеокадр)
Время предзагрузки промежутка : 500 мс.

Скриншоты



Последний раз редактировалось: Suxrob89 (2014-01-16 06:28), всего редактировалось 2 раз(а)

Создавать темы 09-Янв-2014 06:13

[Профиль]  [ЛС] 

Топик был перенесен из форума Мультфильмы в форум HD-AVC

ziyod

Создавать темы 09-Янв-2014 06:38

 

Ligat

Стаж: 6 лет

Сообщений: 4

как звук?

Создавать темы 13-Янв-2014 18:29

[Профиль]  [ЛС] 

жавочир

Стаж: 4 года 7 месяцев

Сообщений: 23

Симпатии: 1

как открыть WINDOWS MEDIA НЕ ОТКРЫВАЕТ

Создавать темы 15-Янв-2014 21:39

[Профиль]  [ЛС] 

Топик был перенесен из форума HD-AVC в форум Мультфильмы

ziyod

Создавать темы 16-Янв-2014 06:32

 

uma2210

Стаж: 5 лет 10 месяцев

Сообщений: 15

Mirshod попросил помочь.Если Вы не против,то я помогу в раздаче

Создавать темы 16-Янв-2014 18:40

[Профиль]  [ЛС] 

AeRoNHanD

Стаж: 5 лет 2 месяца

Сообщений: 198

Симпатии: 3

Звук нормальный не рвет колонки????

Создавать темы 19-Янв-2014 16:31

[Профиль]  [ЛС] 

AeRoNHanD

Стаж: 5 лет 2 месяца

Сообщений: 198

Симпатии: 3

Скачавшие отпишитесь

Создавать темы 19-Янв-2014 16:34

[Профиль]  [ЛС] 

airo123

Стаж: 5 лет 11 месяцев

Сообщений: 5

дайте скорость плз

Создавать темы 23-Янв-2014 16:16

[Профиль]  [ЛС] 

Jnec

Стаж: 5 лет 1 месяц

Сообщений: 165

Спасибо большое!!!

Создавать темы 28-Янв-2014 12:42

[Профиль]  [ЛС] 

saylep

Стаж: 5 лет 8 месяцев

Сообщений: 31

Что со звуком? То тон голоса падает, то поднимается.

Создавать темы 29-Янв-2014 22:09

[Профиль]  [ЛС] 

3DJOHAN

Стаж: 5 лет 7 месяцев

Сообщений: 62

Симпатии: 2

как открыть WINDOWS MEDIA НЕ ОТКРЫВАЕТ
Media Player Classic ! mo4niy player

Создавать темы 04-Фев-2014 10:43

[Профиль]  [ЛС] 

ziyod

Стаж: 7 лет 9 месяцев

Сообщений: 367

Симпатии: 60

http://tas-ix.net/viewtopic.php?t=87805

Создавать темы 06-Фев-2014 09:37

[Профиль]  [ЛС] 
Показать сообщения:    
Тема закрыта

Текущее время: 15-Дек 03:43

Часовой пояс: UTC + 5



Вы не можете начинать темы
Вы не можете отвечать на сообщения
Вы не можете редактировать свои сообщения
Вы не можете удалять свои сообщения
Вы не можете голосовать в опросах
Вы не можете прикреплять файлы к сообщениям
Вы не можете скачивать файлы