Сердце дракона / DragonHeart (Роб Коэн / Rob Cohen) [1996, США, Фэнтези, боевик, драма, приключения, HDDVDRip-AVC] MVO (R5) + MVO (Киномания) + DVO (Гланц и Королёва) + MVO (СТС) + MVO (ОРТ) + Original Eng, Sub (Rus + Eng)

Ответить на тему
 

Slowwalker ®

Стаж: 4 года 11 месяцев

Сообщений: 165

Симпатии: 68


-
Страна:США
Жанр: Фэнтези, боевик, драма, приключения
Год выпуска: 1996
Продолжительность: 01:42:59
Перевод: Многоголосый, R5
................ Многоголосый, Киномания
................ Профессиональный (двухголосый закадровый) Гланц и Королёва
................ Многоголосый, ТК СТС
................ Многоголосый, ТК ОРТ
Cубтитры: русские, английские.
Оригинальная аудиодорожка: английский
Режиссер: Роб Коэн / Rob Cohen
В ролях: Деннис Куэйд (Dennis Quaid), Дэвид Тьюлис (David Thewlis), Пит Постлетуэйт (Pete Postlethwaite), Дина Мейер (Dina Meyer), Джейсон Айзек (Jason Isaacs), Брайан Томпсон (Brian Thompson), Ли Оакес (Lee Oakes), Вульф Кристиан (Wolf Christian), Терри О’Нил (Terry O'Neill), Ева Веймелкова (Eva Vejmelková).
Описание: Чеpное сеpдце бьется в гpуди молодого коpоля Айтона, сеющего вокpуг себя беззаконие и зло. Наставник коpоля, рыцаpь Стаpого Завета Боyин, отпpавляется в пyть, чтобы найти и убить дpакона, котоpого он считает повинным в жестокости Айтона.-Качество видео: HDDVDRip-AVC (исходник 1080p HDDVD VC-1 DD5.1-CtrlHD)
Формат видео: MKV
Видео: 1072x456 (2.35:1); 2971 Kbps; 23,976 fps; 0.253 bpp
Аудио 1:48 kHz, AC3, 5.1 ch, 448 kbps / Многоголосый, R5
Аудио 2:48 kHz, AC3, 5.1 ch, 448 kbps / Многоголосый, Киномания
Аудио 3:48 kHz, AC3, 5.1 ch, 448 kbps / Гланц и Королёва
Аудио 4:48 kHz, AC3, 2.0 ch, 192 kbps / Многоголосый, ТК СТС
Аудио 5:48 kHz, AC3, 2.0 ch, 192 kbps / Многоголосый, ТК ОРТ (satrip by Utas)
Аудио 6:48 kHz, AC3 Dolby Digital, 3/2 (L,C,R,l,r) + LFE ch, ~448.00 kbps avg / Eng
Субтитры: русские (перевод П.Гланца), английские.
Субтитры: русские (Киномания).

x264

x264 [info]: frame I:1197 Avg QP:15.89 size: 80846 PSNR Mean Y:47.50 U:50.76 V:51.45 Avg:48.38 Global:47.66
x264 [info]: frame P:33972 Avg QP:18.67 size: 28914 PSNR Mean Y:45.95 U:49.86 V:50.48 Avg:46.91 Global:45.66
x264 [info]: frame B:112996 Avg QP:20.80 size: 10750 PSNR Mean Y:44.47 U:48.94 V:49.68 Avg:45.52 Global:44.76
x264 [info]: consecutive B-frames: 2.4% 3.2% 8.7% 28.6% 17.6% 28.3% 4.9% 3.8% 1.3% 1.1%
x264 [info]: mb I I16..4: 4.0% 80.9% 15.1%
x264 [info]: mb P I16..4: 0.6% 15.1% 1.5% P16..4: 29.2% 33.7% 13.6% 0.0% 0.0% skip: 6.3%
x264 [info]: mb B I16..4: 0.1% 2.0% 0.2% B16..8: 33.1% 23.4% 4.6% direct: 6.8% skip:29.8% L0:41.8% L1:40.6% BI:17.6%
x264 [info]: 8x8 transform intra:86.8% inter:60.4%
x264 [info]: direct mvs spatial:98.2% temporal:1.8%
x264 [info]: coded y,uvDC,uvAC intra: 93.5% 83.3% 51.9% inter: 35.2% 22.6% 7.0%
x264 [info]: i16 v,h,dc,p: 34% 13% 13% 40%
x264 [info]: i8 v,h,dc,ddl,ddr,vr,hd,vl,hu: 11% 7% 5% 10% 15% 14% 13% 12% 13%
x264 [info]: i4 v,h,dc,ddl,ddr,vr,hd,vl,hu: 12% 6% 5% 8% 16% 15% 14% 11% 12%
x264 [info]: i8c dc,h,v,p: 38% 25% 19% 18%
x264 [info]: Weighted P-Frames: Y:18.4% UV:7.8%
x264 [info]: ref P L0: 43.4% 13.0% 16.6% 6.9% 5.5% 4.1% 3.7% 2.2% 2.1% 1.9% 0.5% 0.1%
x264 [info]: ref B L0: 72.9% 11.2% 5.6% 3.1% 2.4% 2.0% 1.7% 0.8% 0.3%
x264 [info]: ref B L1: 93.1% 6.9%
x264 [info]: SSIM Mean Y:0.9798849 (16.965db)
x264 [info]: PSNR Mean Y:44.838 U:49.164 V:49.876 Avg:45.865 Global:44.970 kb/s:2969.31
x264 [total]: encoded 148165 frames, 1.48 fps, 2969.31 kb/s

MediaInfo

General
Unique ID : 246318933066991472572656961441937066668 (0xB94F4D0832623AE8A35BFF4D2B398AAC)
Complete name : E:\Dragonheart.1996.HDDVDRip-AVC.mkv
Format : Matroska
File size : 3.70 GiB
Duration : 1h 42mn
Overall bit rate : 5 148 Kbps
Encoded date : UTC 2012-03-31 16:20:35
Writing application : mkvmerge v4.5.0 ('Speed of Light') сборка от Feb 1 2011 02:10:32
Writing library : libebml v1.2.0 + libmatroska v1.1.0
Video
ID : 1
Format : AVC
Format/Info : Advanced Video Codec
Format profile : [email protected]
Format settings, CABAC : Yes
Format settings, ReFrames : 10 frames
Codec ID : V_MPEG4/ISO/AVC
Duration : 1h 42mn
Bit rate : 2 971 Kbps
Width : 1 072 pixels
Height : 456 pixels
Display aspect ratio : 2.35:1
Frame rate : 23.976 fps
Color space : YUV
Chroma subsampling : 4:2:0
Bit depth : 8 bits
Scan type : Progressive
Bits/(Pixel*Frame) : 0.253
Stream size : 2.06 GiB (56%)
Writing library : x264 core 118 r2085 8a62835
Encoding settings : cabac=1 / ref=10 / deblock=1:-3:-2 / analyse=0x3:0x113 / me=umh / subme=11 / psy=1 / psy_rd=0.90:0.00 / mixed_ref=1 / me_range=32 / chroma_me=1 / trellis=2 / 8x8dct=1 / cqm=0 / deadzone=21,11 / fast_pskip=0 / chroma_qp_offset=-2 / threads=3 / sliced_threads=0 / nr=0 / decimate=0 / interlaced=0 / bluray_compat=0 / constrained_intra=0 / bframes=9 / b_pyramid=2 / b_adapt=2 / b_bias=0 / direct=3 / weightb=1 / open_gop=0 / weightp=2 / keyint=250 / keyint_min=23 / scenecut=40 / intra_refresh=0 / rc=2pass / mbtree=0 / bitrate=2971 / ratetol=1.0 / qcomp=0.65 / qpmin=0 / qpmax=69 / qpstep=4 / cplxblur=20.0 / qblur=0.5 / ip_ratio=1.40 / pb_ratio=1.30 / aq=2:0.90
Language : English
Audio #1
ID : 2
Format : AC-3
Format/Info : Audio Coding 3
Mode extension : CM (complete main)
Codec ID : A_AC3
Duration : 1h 42mn
Bit rate mode : Constant
Bit rate : 448 Kbps
Channel(s) : 6 channels
Channel positions : Front: L C R, Side: L R, LFE
Sampling rate : 48.0 KHz
Bit depth : 16 bits
Compression mode : Lossy
Stream size : 330 MiB (9%)
Title : R5
Language : Russian
Audio #2
ID : 3
Format : AC-3
Format/Info : Audio Coding 3
Mode extension : CM (complete main)
Codec ID : A_AC3
Duration : 1h 42mn
Bit rate mode : Constant
Bit rate : 448 Kbps
Channel(s) : 6 channels
Channel positions : Front: L C R, Side: L R, LFE
Sampling rate : 48.0 KHz
Bit depth : 16 bits
Compression mode : Lossy
Stream size : 330 MiB (9%)
Title : Киномания
Language : Russian
Audio #3
ID : 4
Format : AC-3
Format/Info : Audio Coding 3
Mode extension : CM (complete main)
Codec ID : A_AC3
Duration : 1h 42mn
Bit rate mode : Constant
Bit rate : 448 Kbps
Channel(s) : 6 channels
Channel positions : Front: L C R, Side: L R, LFE
Sampling rate : 48.0 KHz
Bit depth : 16 bits
Compression mode : Lossy
Stream size : 330 MiB (9%)
Title : Гланц и Королёва
Language : Russian
Audio #4
ID : 5
Format : AC-3
Format/Info : Audio Coding 3
Mode extension : CM (complete main)
Codec ID : A_AC3
Duration : 1h 42mn
Bit rate mode : Constant
Bit rate : 192 Kbps
Channel(s) : 2 channels
Channel positions : Front: L R
Sampling rate : 48.0 KHz
Bit depth : 16 bits
Compression mode : Lossy
Stream size : 141 MiB (4%)
Title : ТК СТС
Language : Russian
Audio #5
ID : 6
Format : AC-3
Format/Info : Audio Coding 3
Mode extension : CM (complete main)
Codec ID : A_AC3
Duration : 1h 42mn
Bit rate mode : Constant
Bit rate : 192 Kbps
Channel(s) : 2 channels
Channel positions : Front: L R
Sampling rate : 48.0 KHz
Bit depth : 16 bits
Compression mode : Lossy
Stream size : 141 MiB (4%)
Title : ТК ОРТ
Language : Russian
Audio #6
ID : 7
Format : AC-3
Format/Info : Audio Coding 3
Mode extension : CM (complete main)
Codec ID : A_AC3
Duration : 1h 42mn
Bit rate mode : Constant
Bit rate : 448 Kbps
Channel(s) : 6 channels
Channel positions : Front: L C R, Side: L R, LFE
Sampling rate : 48.0 KHz
Bit depth : 16 bits
Compression mode : Lossy
Stream size : 330 MiB (9%)
Language : English
Text #1
ID : 8
Format : UTF-8
Codec ID : S_TEXT/UTF8
Codec ID/Info : UTF-8 Plain Text
Title : Гланц
Language : Russian
Text #2
ID : 9
Format : UTF-8
Codec ID : S_TEXT/UTF8
Codec ID/Info : UTF-8 Plain Text
Title : Киномания
Language : Russian
Text #3
ID : 10
Format : UTF-8
Codec ID : S_TEXT/UTF8
Codec ID/Info : UTF-8 Plain Text
Language : English
Menu
00:00:00.000 : en:Slain King (Main Titles)
00:08:00.021 : en:Resurrected
00:14:38.752 : en:Above the Code
00:17:28.464 : en:Dragon Hunting
00:21:17.025 : en:King's Sport
00:24:56.328 : en:Into the Mouth of Death
00:30:04.427 : en:The Last One
00:38:07.994 : en:Avenging Father's Fate
00:43:38.157 : en:A Special Heart
00:50:10.298 : en:The King's Lesson
00:58:24.834 : en:In League with the Dragon
01:04:54.473 : en:Sworn to Valor
01:10:06.827 : en:A Knight's Army
01:15:03.707 : en:Peasant's Revolt
01:20:45.465 : en:Save The Dragon
01:25:43.805 : en:Death to the King
01:30:35.012 : en:To the Stars
01:36:56.560 : en:End Titles

Скриншоты





Последний раз редактировалось: Slowwalker (2014-01-09 14:37), всего редактировалось 1 раз

Создавать темы 09-Янв-2014 13:41

[Профиль]  [ЛС] 

Топик был перенесен из форума Зарубежное кино в форум HD-AVC

СтАсИкОс

Создавать темы 09-Янв-2014 14:23

 

Vladimir

Стаж: 7 лет 3 месяца

Сообщений: 28

походу веткой ошиблись-) в зарубежные надо его-)

Создавать темы 09-Янв-2014 15:29

[Профиль]  [ЛС] 

Топик был перенесен из форума HD-AVC в форум HD-AVC

Slowwalker

Создавать темы 09-Янв-2014 15:51

 

Slowwalker ®

Стаж: 4 года 11 месяцев

Сообщений: 165

Симпатии: 68

походу веткой ошиблись-) в зарубежные надо его-)
Да я и сам часто путаю C:

Создавать темы 09-Янв-2014 15:59

[Профиль]  [ЛС] 
Показать сообщения:    
Ответить на тему

Текущее время: 14-Дек 01:31

Часовой пояс: UTC + 5



Вы не можете начинать темы
Вы не можете отвечать на сообщения
Вы не можете редактировать свои сообщения
Вы не можете удалять свои сообщения
Вы не можете голосовать в опросах
Вы не можете прикреплять файлы к сообщениям
Вы не можете скачивать файлы