А теперь не смотри / Don't Look Now (: Николас Роуг) [Детектив, Драма, Зарубежный фильм, Мистика, Триллер, Ужасы, DVDRip]

Ответить на тему
 

Dead_Mopo3 ®

Стаж: 5 лет 2 месяца

Сообщений: 270

Симпатии: 25

А теперь не смотри / Don't Look Now
Год выпуска: 1973
Страна: Великобритания,Италия
Жанр: Детектив, Драма, Зарубежный фильм, Мистика, Триллер, Ужасы
Продолжительность: 01:45:43
Режиссер: : Николас Роуг
В ролях: Джули Кристи, Леопольдо Триесте, Хилари Мейсон, Джорджо Трестин, Массимо Серато, Клелия Матания, Ренато Скарпа, Дэвид Три, Энн Рай, Дональд Сазерленд
Описание: В семье Бэкстеров случает несчастье, их дочь погибает. Это событие ставит и так хрупкий брак на грань краха. Чтобы забыть свое горе, Джон решает вместе с женой отправиться в Венецию, где ему предложили работу. Джон надеется, что смена декораций сможет отвлечь Лауру и его самого от грустных воспоминаний. Поначалу все идет хорошо, но вскоре Джон понимает, что никакая смена декораций не сможет помочь их браку, дело в них самих и в каком бы городе мира они ни жили, прошлое будет преследовать их всегда.

Доп. информация

: General
Complete name : D:\Загруженное\A.teper.ne.smotri.1973.XviD.DVDRip.ExKinoRay.avi
Format : AVI
Format/Info : Audio Video Interleave
File size : 1.47 GiB
Duration : 1h 45mn
Overall bit rate : 1 996 Kbps
Video
ID : 0
Format : MPEG-4 Visual
Format profile : [email protected]
Format settings, BVOP : No
Format settings, QPel : No
Format settings, GMC : No warppoints
Format settings, Matrix : Default (H.263)
Codec ID : XVID
Codec ID/Hint : XviD
Duration : 1h 45mn
Source duration : 1h 45mn
Bit rate : 1 563 Kbps
Width : 720 pixels
Height : 384 pixels
Display aspect ratio : 1.85:1
Frame rate : 25.000 fps
Color space : YUV
Chroma subsampling : 4:2:0
Bit depth : 8 bits
Scan type : Progressive
Compression mode : Lossy
Bits/(Pixel*Frame) : 0.226
Stream size : 1.15 GiB (78%)
Writing library : XviD 1.1.2 (UTC 2006-11-01)
Audio #1
ID : 1
Format : AC-3
Format/Info : Audio Coding 3
Mode extension : CM (complete main)
Format settings, Endianness : Big
Codec ID : 2000
Duration : 1h 45mn
Bit rate mode : Constant
Bit rate : 192 Kbps
Channel(s) : 2 channels
Channel positions : Front: L R
Sampling rate : 48.0 KHz
Bit depth : 16 bits
Compression mode : Lossy
Stream size : 145 MiB (10%)
Alignment : Aligned on interleaves
Interleave, duration : 32 ms (0.80 video frame)
Audio #2
ID : 2
Format : AC-3
Format/Info : Audio Coding 3
Mode extension : CM (complete main)
Format settings, Endianness : Big
Codec ID : 2000
Duration : 1h 45mn
Bit rate mode : Constant
Bit rate : 224 Kbps
Channel(s) : 2 channels
Channel positions : Front: L R
Sampling rate : 48.0 KHz
Bit depth : 16 bits
Compression mode : Lossy
Stream size : 169 MiB (11%)
Alignment : Aligned on interleaves
Interleave, duration : 32 ms (0.80 video frame)
Качество: DVDRip
Формат: AVI
Видео кодек: XviD
Аудио кодек: AC3
Видео: Xvid 720x384 25fps 1 563 Kbps
Аудио: Dolby AC3 48000Hz stereo 192kbps

Скриншоты


Ограничение по возрасту +16 т.к есть сцены для взрослых ;)


Последний раз редактировалось: Dead_Mopo3 (2014-01-09 18:27), всего редактировалось 2 раз(а)

Создавать темы 09-Янв-2014 14:44

[Профиль]  [ЛС] 

Tiar17

Стаж: 5 лет 10 месяцев

Сообщений: 83

Симпатии: 5

рейтинг бешеный!

Создавать темы 09-Янв-2014 15:08

[Профиль]  [ЛС] 

Dead_Mopo3 ®

Стаж: 5 лет 2 месяца

Сообщений: 270

Симпатии: 25

Для модеров не нашел для этого фильма IMDb! подправьте если что

Создавать темы 09-Янв-2014 15:22

[Профиль]  [ЛС] 

СтАсИкОс

Стаж: 6 лет 7 месяцев

Сообщений: 314

Симпатии: 20

Добавьте год, укажите битрейт видео

Создавать темы 09-Янв-2014 15:42

[Профиль]  [ЛС] 

Dead_Mopo3 ®

Стаж: 5 лет 2 месяца

Сообщений: 270

Симпатии: 25

исправил!

Создавать темы 09-Янв-2014 18:25

[Профиль]  [ЛС] 

Dead_Mopo3 ®

Стаж: 5 лет 2 месяца

Сообщений: 270

Симпатии: 25

Потихонечку раздам... т.к не оптика + другой релиз еще раздать нужно
Уфф достали свет выключают каждый день да и причем по 3 раза за день! так бы уже раздал и другой релиз оформил hm hm

Создавать темы 09-Янв-2014 18:30

[Профиль]  [ЛС] 

omega_89

Стаж: 4 года 11 месяцев

Сообщений: 50

Симпатии: 2

спасибо! надеюсь фильм стоящий

Создавать темы 10-Янв-2014 17:10

[Профиль]  [ЛС] 

Dead_Mopo3 ®

Стаж: 5 лет 2 месяца

Сообщений: 270

Симпатии: 25

omega_89, да фильм хорош!

Создавать темы 11-Янв-2014 09:24

[Профиль]  [ЛС] 

shakhnozka

Стаж: 3 года 8 месяцев

Сообщений: 26

Симпатии: 2

фильм по мне не очень((

Создавать темы 07-Фев-2014 16:48

[Профиль]  [ЛС] 

Dissonans

Стаж: 6 лет 8 месяцев

Сообщений: 7

Ребят, есть еще у кого-нибудь?

Создавать темы 13-Дек-2015 06:48

[Профиль]  [ЛС] 
Показать сообщения:    
Ответить на тему

Текущее время: 16-Авг 22:33

Часовой пояс: UTC + 5



Вы не можете начинать темы
Вы не можете отвечать на сообщения
Вы не можете редактировать свои сообщения
Вы не можете удалять свои сообщения
Вы не можете голосовать в опросах
Вы не можете прикреплять файлы к сообщениям
Вы не можете скачивать файлы