Жилец / Locataire, Le / Tenant, The (Роман Полански / Roman Polanski) [1976, Франция, драма, триллер, WEB-DL 720p] AVO (Алексеев) + MVO + Sub Rus, Eng + Original Eng

Ответить на тему
 

Jeneva ®

Стаж: 5 лет 6 месяцев

Сообщений: 47

Симпатии: 70

Жилец / Le locataire
Год выпуска: 1976
Страна: Франция
Жанр: драма, триллер
Продолжительность: 02:05:27
Перевод 1: Авторский (одноголосый закадровый) - АНТОН АЛЕКСЕЕВ
Перевод 2: Профессиональный (многоголосый, закадровый) - ТРК "Петербург-Пятый канал"
Cубтитры: русские, английские
Оригинальная аудиодорожка: английский
Режиссер: Роман Полански
В ролях: Роман Полански /Roman Polanski/, Изабель Аджани /Isabelle Adjani/, Шелли Уинтерс /Shelley Winters/, Мелвин Даглас /Melvyn Douglas/, Джо Ван Флит /Jo Van Fleet/, Бернар Фрессон /Bernard Fresson/, Лила Кедрова /Lila Kedrowa/, Клод Дофен /Claude Dauphin/, Клод Пьеплю /Claude Pieplu/, Руфус /Rufus/
Описание: Скромный конторский служащий Трелковский решает сменить место проживания и переехать на новое место. Он снимает квартиру в обветшалом здании с недружелюбными соседями. От консьержки он узнает, что предыдущая квартирантка, Симона, покончила с собой, выбросившись из окна. Со временем Трелковский начинает всё больше и больше думать о ней, стараясь узнать как можно больше подробностей. Вскоре он начинает винить соседей в её гибели.
Качество: WEB-DL 720p
Формат: MKV
Видео кодек: AVC
Аудио кодек: AC3
Видео: 1278x720; 23.976 fps; ~ 3 925Kbps; 0.178 Bits/Pixel
Аудио 1: Russian - 48 kHz, AC3 Dolby Digital, 2/0 (L,R) ch, ~192 kbps - Антон Алексеев
Аудио 2: Russian - 48 kHz, AC3 Dolby Digital, 2/0 (L,R) ch, ~192 kbps - МVO
Аудио 3: English - 48 kHz, AC3 Dolby Digital, 2/0 (L,R) ch, ~192 kbps - Original
Формат субтитров: Russian (*ASS), English (*UTF-8)

Доп. информация

Фильм снят по мотивам романа Роланда Топора «Призрачный жилец» (Le Locataire Chimerique, 1964).
Несмотря на то, что в британский кинопрокат фильм вышел без каких-либо сокращений, британская видеоверсия 1986 года содержала «купюру»: были вырезаны 6 секунд экранного времени из эпизода, в котором Трелковский и Стелла смотрят фильм в кинотеатре. А именно — были удалены несколько появляющихся на экране кинотеатра кадров фильма Роберта Клауза «Выход Дракона» (1973) с Брюсом Ли в главной роли. Дело в том, что в этих кадрах фигурировали нунчаки — оружие, официально запрещенное в Европе.
Филиппа Сарда, написавшего музыку к фильму, можно увидеть в камео — он сыграл мужчину, пристально смотрящего на Трелковского в кинотеатре.
Идея использовать стеклянную гармонику пришла в голову композитору Филиппу Сарду после того, как он случайно увидел, что Роман Полански, сидя за столиком в ресторане, имитировал движение пальцев при игре на бокалах.

MediaInfo

General
Complete name : F:\Downloads\Torrent\reliz\Tenant, The.1976\The.Tenant.1976.720p.WEB-DL.TAS-IX.NET.mkv
Format : Matroska
File size : 4.02 GiB
Duration : 2h 5mn
Overall bit rate : 4 592 Kbps
Encoded date : UTC 2013-08-27 01:20:48
Writing application : mkvmerge v3.3.0 ('Language') built on Mar 24 2010 14:59:24
Writing library : libebml v0.8.0 + libmatroska v0.9.0
Video
ID : 1
Format : AVC
Format/Info : Advanced Video Codec
Format profile : [email protected]
Format settings, CABAC : No
Format settings, ReFrames : 2 frames
Format settings, GOP : M=2, N=31
Muxing mode : Container [email protected]
Codec ID : V_MPEG4/ISO/AVC
Duration : 2h 5mn
Bit rate : 3 925 Kbps
Width : 1 278 pixels
Height : 720 pixels
Display aspect ratio : 16:9
Frame rate : 23.976 fps
Color space : YUV
Chroma subsampling : 4:2:0
Bit depth : 8 bits
Scan type : Progressive
Bits/(Pixel*Frame) : 0.178
Stream size : 3.44 GiB (85%)
Title : The.Tenant.1976.
Language : English
Color primaries : BT.709-5, BT.1361, IEC 61966-2-4, SMPTE RP177
Transfer characteristics : BT.709-5, BT.1361
Matrix coefficients : BT.709-5, BT.1361, IEC 61966-2-4 709, SMPTE RP177
Audio #1
ID : 2
Format : AC-3
Format/Info : Audio Coding 3
Mode extension : CM (complete main)
Codec ID : A_AC3
Duration : 2h 5mn
Bit rate mode : Constant
Bit rate : 192 Kbps
Channel(s) : 2 channels
Channel positions : Front: L R
Sampling rate : 48.0 KHz
Stream size : 172 MiB (4%)
Title : AVO Алексеев @ AC3 192 kbps
Language : Russian
Audio #2
ID : 3
Format : AC-3
Format/Info : Audio Coding 3
Mode extension : CM (complete main)
Codec ID : A_AC3
Duration : 2h 5mn
Bit rate mode : Constant
Bit rate : 192 Kbps
Channel(s) : 2 channels
Channel positions : Front: L R
Sampling rate : 48.0 KHz
Stream size : 172 MiB (4%)
Title : MVO @ AC3 192 kbps
Language : Russian
Audio #3
ID : 4
Format : AC-3
Format/Info : Audio Coding 3
Mode extension : CM (complete main)
Codec ID : A_AC3
Duration : 2h 5mn
Bit rate mode : Constant
Bit rate : 192 Kbps
Channel(s) : 2 channels
Channel positions : Front: L R
Sampling rate : 48.0 KHz
Stream size : 172 MiB (4%)
Title : Original @ AC3 192 kbps
Language : English
Text #1
ID : 5
Format : ASS
Codec ID : S_TEXT/ASS
Codec ID/Info : Advanced Sub Station Alpha
Language : Russian
Text #2
ID : 6
Format : UTF-8
Codec ID : S_TEXT/UTF8
Codec ID/Info : UTF-8 Plain Text
Language : English
Menu
00:00:00.000 : en:Chapter 1
00:15:26.000 : en:Chapter 2
00:29:55.000 : en:Chapter 3
00:46:41.000 : en:Chapter 4
00:59:56.000 : en:Chapter 5
01:15:05.000 : en:Chapter 6
01:31:11.000 : en:Chapter 7
01:47:24.000 : en:Chapter 8
02:00:42.000 : en:Chapter 9

Скриншоты





Создавать темы 09-Янв-2014 16:01

[Профиль]  [ЛС] 

firestarter_xl

Стаж: 4 года 11 месяцев

Сообщений: 50

Симпатии: 2

Третий фильм из трилогии (Отвращение, Ребенок Розмари, Жилец) "квартирный ужастик" Романа Поланского

Создавать темы 09-Янв-2014 17:44

[Профиль]  [ЛС] 

anna140987

Стаж: 4 года 7 месяцев

Сообщений: 97

Симпатии: 12

Хороший, выдержанный триллер. Я удивляюсь современной режиссуре, снимающей кровищу и топоры с бензопилами и называющими это "триллерами". Палански, Хичкок - вот где настоящий саспенс..

Создавать темы 16-Июн-2014 19:15

[Профиль]  [ЛС] 

mukimov

Стаж: 4 года 11 месяцев

Сообщений: 15

Симпатии: 1

Спасибо за раздачу! Еще бы скорости поддать! Благодарю!

Создавать темы 25-Июн-2014 23:25

[Профиль]  [ЛС] 

crazy-egoist

Стаж: 4 года 1 месяц

Сообщений: 16

Привет Женева! Почаще раздавай пожалуйста фильм Жилец. Заранее благодарю.

Создавать темы 27-Дек-2014 15:07

[Профиль]  [ЛС] 

crazy-egoist

Стаж: 4 года 1 месяц

Сообщений: 16

Большое тебе спасибо! Хороший фильм.

Создавать темы 30-Дек-2014 15:01

[Профиль]  [ЛС] 
Показать сообщения:    
Ответить на тему

Текущее время: 23-Авг 17:05

Часовой пояс: UTC + 5



Вы не можете начинать темы
Вы не можете отвечать на сообщения
Вы не можете редактировать свои сообщения
Вы не можете удалять свои сообщения
Вы не можете голосовать в опросах
Вы не можете прикреплять файлы к сообщениям
Вы не можете скачивать файлы