ОДНОКЛАССНИКИ.RU НАCLICKАЙ УДАЧУ! (Павел Худяков.) [2013 г., Мелодрама, Комедия., DVDRip][Лицензия]

Страницы :  1, 2, 3  След.

Ответить на тему
 

X3JumperRaZ0R ®

Стаж: 5 лет 4 месяца

Сообщений: 177

Симпатии: 151

Год выпуска: 2013
Жанр: Мелодрама, Комедия.
Продолжительность: 01:35:20
Перевод: Не требуется. [Лицензия]
Страна: РоссиЯ.

Режиссер:
Павел Худяков.-В ролях: Пётр Фёдоров, Фёдор Бондарчук, Корнелия Поляк, Сергей Друзьяк, Тимати, Снуп Догг, Сергей Никоненко, Александр Ревва, Ольга Тумайкина, Семён Стругачев...-Описание: Главный герой молодой человек по имени Леша, начал замечать, что в последнее время, ему чертовски не везет, прям какая то черная полоса. Любое дело, за которое он берется, изначально обречено на провал. Его мечта, работать в пристежной рекламной picpicкампании, поближе к девушке Маше, в которую он безумно влюблен. Но все это, остается только несбыточной мечтой. Каждому человеку дается шанс в жизни все исправить, и вот нашему герою, в руки попадает заколдованный ноутбук. Невероятно, но достаточно просто написать любое пожелание в "Одноклассниках", как оно тут же сбывается. Леша теперь может получить все, деньги, работу, роскошный дом и новых друзей. Он начинает замечать, что эта вещица с одной стороны улучшает его жизнь, с другой наоборот, с временем он остался совершенно один. Нужно побыстрее все вернуть, на прежние места...-Cценарий: Таир Мамедов, Павел Худяков, caxap.1kg.
Продюсер: Корнелия Поляк.
Оператор: Максим Осадчий.
Композитор: Майкл А. Рейган.
Премьера (МИР): 12 декабря 2013
Премьера (РФ): 12 декабря 2013, «A Company», «Двадцатый Век Фокс СНГ»
Сборы в Мире: $ 3 500 000
Сборы в России: $ 3 152 527
Возраст: 12+-
Качество: DVDRip.
Формат: AVI.
Видео кодек: XviD.
Аудио кодек: AC3.
Видео: XviD, 1650 Кбит/с, 704x304.
Аудио: AC3, 6 ch, 384 Кбит/с.


MI

General
Complete name : D:\kino-5\555\Odnoklassniki.ru.naklikai.udachu.2013.O.DVDRip.1400MB.([email protected])_RaZ0R_xJ.avi
Format : AVI
Format/Info : Audio Video Interleave
File size : 1.37 GiB
Duration : 1h 35mn
Overall bit rate : 2 043 Kbps
Writing application : VirtualDubMod 1.5.10.2 (build 2540/release)
Writing library : VirtualDubMod build 2540/release
Video
ID : 0
Format : MPEG-4 Visual
Format profile : Advanced [email protected]
Format settings, BVOP : 1
Format settings, QPel : No
Format settings, GMC : No warppoints
Format settings, Matrix : Default (MPEG)
Codec ID : XVID
Codec ID/Hint : XviD
Duration : 1h 35mn
Bit rate : 1 650 Kbps
Width : 704 pixels
Height : 304 pixels
Display aspect ratio : 2.35:1
Frame rate : 25.000 fps
Color space : YUV
Chroma subsampling : 4:2:0
Bit depth : 8 bits
Scan type : Progressive
Compression mode : Lossy
Bits/(Pixel*Frame) : 0.308
Stream size : 1.10 GiB (81%)
Writing library : XviD 1.2.1 (UTC 2008-12-04)
Audio
ID : 1
Format : AC-3
Format/Info : Audio Coding 3
Mode extension : CM (complete main)
Codec ID : 2000
Duration : 1h 35mn
Bit rate mode : Constant
Bit rate : 384 Kbps
Channel(s) : 6 channels
Channel positions : Front: L C R, Side: L R, LFE
Sampling rate : 48.0 KHz
Bit depth : 16 bits
Compression mode : Lossy
Stream size : 263 MiB (19%)
Alignment : Split accross interleaves
Interleave, duration : 40 ms (1.00 video frame)
Interleave, preload duration : 500 ms

Скриншоты





Последний раз редактировалось: X3JumperRaZ0R (2014-01-10 03:20), всего редактировалось 5 раз(а)

Создавать темы 09-Янв-2014 22:10

[Профиль]  [ЛС] 

стич

Стаж: 5 лет 5 месяцев

Сообщений: 18

Лицензия Вау Спасибо 3а Релиз, Автору Респект

Создавать темы 10-Янв-2014 01:12

[Профиль]  [ЛС] 

jasur.1996

Стаж: 4 года 6 месяцев

Сообщений: 46

Симпатии: 3

давно ждал спс

Создавать темы 10-Янв-2014 11:59

[Профиль]  [ЛС] 

AeRoNHanD

Стаж: 5 лет 1 месяц

Сообщений: 198

Симпатии: 3

Класс)))Респект

Создавать темы 10-Янв-2014 12:33

[Профиль]  [ЛС] 

kahramon2013

Стаж: 4 года 10 месяцев

Сообщений: 3

Супер спс )))

Создавать темы 10-Янв-2014 12:58

[Профиль]  [ЛС] 

feniksqip

Стаж: 5 лет 6 месяцев

Сообщений: 26

Симпатии: 1

Глянем ! Рейтинг зашкаливает ! Видимо очередное Гом*о, т.е. ГМО.))

Создавать темы 10-Янв-2014 16:57

[Профиль]  [ЛС] 

Stitch1990

Стаж: 5 лет 10 месяцев

Сообщений: 67

у кого нибудь есть в качестве? а то видео рывками идет


Последний раз редактировалось: Stitch1990 (2014-01-10 22:14), всего редактировалось 2 раз(а)

Создавать темы 10-Янв-2014 18:26

[Профиль]  [ЛС] 

Don_OmaR

Стаж: 5 лет 8 месяцев

Сообщений: 90

Симпатии: 5

Во Российский Фильм, неужели... !
Спасибо.

Создавать темы 10-Янв-2014 20:04

[Профиль]  [ЛС] 

Dilmurod 77

Стаж: 3 года 11 месяцев

Сообщений: 21

спасибо хорощий филм

Создавать темы 11-Янв-2014 08:15

[Профиль]  [ЛС] 

BradyagA

Стаж: 5 лет 2 месяца

Сообщений: 4

Ребята Почему такая скорость маленькая??

Создавать темы 12-Янв-2014 13:36

[Профиль]  [ЛС] 

MrСтас

Стаж: 5 лет 10 месяцев

Сообщений: 45

Уважаемые добавьте пожалуйста скорости заранее благодарен !!!

Создавать темы 13-Янв-2014 22:23

[Профиль]  [ЛС] 

Jnec

Стаж: 5 лет 1 месяц

Сообщений: 165

Спасибо большое!!!

Создавать темы 14-Янв-2014 09:59

[Профиль]  [ЛС] 

Vladislav_cox

Стаж: 4 года 6 месяцев

Сообщений: 12

хороший фильм скачал его до ноаого года выкладывал его на раздучу но меня забанили удалили раздачу

Создавать темы 14-Янв-2014 13:10

[Профиль]  [ЛС] 

tas-ix-admin

Стаж: 5 лет

Сообщений: 13

Симпатии: 1

хороший фильм всем советую 8/10

Создавать темы 15-Янв-2014 14:21

[Профиль]  [ЛС] 

X3JumperRaZ0R ®

Стаж: 5 лет 4 месяца

Сообщений: 177

Симпатии: 151

Да НЕ3А4ТО ВСЕМ ПРИЯТНОГО ПРОСМОТРА ВАМ САМОЕ ГЛАВНОЕ... А ФИЛЬМ СУПЕР МНЕ САМОМУ ТОЖ ПОНРАВИЛСЯ...

Создавать темы 15-Янв-2014 23:49

[Профиль]  [ЛС] 
Показать сообщения:    
Ответить на тему

Текущее время: 24-Ноя 21:53

Часовой пояс: UTC + 5



Вы не можете начинать темы
Вы не можете отвечать на сообщения
Вы не можете редактировать свои сообщения
Вы не можете удалять свои сообщения
Вы не можете голосовать в опросах
Вы не можете прикреплять файлы к сообщениям
Вы не можете скачивать файлы