Синий Экзорцист (ТВ) / Blue Exorcist / Ao no Exorcist (Окамура Тэнсай) [TV+Special] [25+11 из 25+11] [без хардсаба] [RUS(ext), JAP+SUB] [2011 г., приключения, комедия, мистика, сёнэн, BDRip] [720p]

Ответить на тему
 

MeiDoCorpse ®

Стаж: 4 года 7 месяцев

Сообщений: 222

Симпатии: 14

- Год выпуска: 2011
Страна: Япония
Жанр: приключения, комедия, мистика, сёнэн
Продолжительность: ТВ | 25 эп. + спэшл по 25 мин.-Режиссёр: Окамура Тэнсай
Автор оригинала: Като Кадзуэ
Студия: A-1 Pictures Inc.-Описание:
15-летний Рин Окумура с раннего детства был хулиганом – буйным, вспыльчивым, готовым на все, чтобы отстоять свои «понятия». Парня сдерживало лишь влияние приемного отца-священника, да еще общение с братом-близнецом Юкио. Тем не менее, за стенами монастыря, где жили братья, старшего звали не иначе как «отродьем демона». Увы, звали пророчески – Рин оказался сыном Сатаны, правителя Геенны, который создал сосуд для своего явления в Ассию – материальный мир. Иерархи Церкви хотели уничтожить близнецов Окумура после рождения, но влиятельный отец Фудзимото поклялся воспитать их как людей и не отдавать адским силам. Вот только против Князя Тьмы любая вера бессильна – Сатана, явившийся за сыном, убил его опекуна и удалился, заявив, что никуда парень теперь не денется.
И что теперь? Приемного отца нет, дом в руинах, а за Рином, показавшим свою демоническую природу, явились чистильщики из ордена экзорцистов. Но вместо смертельной битвы сын Сатаны пожелал стать… одним из них! Перед такой шуткой судьбы не смогли устоять даже суровые бойцы с демонами, в итоге Рин отправился в магическую академию Истинного Креста, чтобы поднабраться сил и знаний для серьезного объяснения с «папашей». Путь молодому экзорцисту предстоит долгий, но ведь сказано: «Противитеся же диаволу, и бежит от вас!»
© Hollow, World Art-Cсылки: Официальная страница || AniDB || World Art || MAL-Качество: BDRip
Энкод: Winter
Контейнер: mkv
Тип видео: Без хардсаба
Наличие линковки: Нет
Видео: x264 (Hi10p), 1280x720, ~3000 Kbps, 23.976 fps
Аудио: Japanese, Vorbis, 48000Hz, ~256 Kbps, 2ch, в составе контейнера
Аудио: Russian, AAC, 48000Hz, ~192 Kbps, 2ch, внешними файлами | Persona99
Субтитры: Russian, ASS, внешними файлами | Advantage [ТВ]-

Список эпизодов

01. The Devil Resides in Human Souls
02. Gehenna Gate
03. Brothers
04. Garden of Amahara
05. Child of the Cursed Temple
06. The Phantom Cook
07. Flock of Plovers
08. Now a Certain Man was Sick
09. Memories
10. Cait Sith
11. Demon of the Deep
12. A Game of Tag
13. Proof
14. Fun Camp
15. An Act of Kindness
16. The Wager
17. Temptation
18. Gale
19. An Ordinary Day
20. Mask
21. Secret Garden
22. Demon Hunting
23. Truth
24. Satan`s Spawn
25. Time, Stop
SP1-10. Omake Anime Uraeku
SP11. Tokubetsu Bangai Hen Kuro no Iede

Скриншоты

Подробные тех. данные

General
Unique ID : 205744417860272181220087961294563063357 (0x9AC8EEFB7A9207C6AC0C6827C57A363D)
Complete name : E:\Ao no Exorcist [BD] [720p]\[Winter] Ao no Exorcist 01 [BDrip 1280x720 x264 Vorbis].mkv
Format : Matroska
Format version : Version 2
File size : 560 MiB
Duration : 25mn 32s
Overall bit rate mode : Variable
Overall bit rate : 3 066 Kbps
Encoded date : UTC 2012-07-29 16:56:21
Writing application : mkvmerge v2.9.7 ('Tenderness') built on Jul 1 2009 18:43:35
Writing library : libebml v0.7.7 + libmatroska v0.8.1
Video
ID : 1
Format : AVC
Format/Info : Advanced Video Codec
Format profile : High [email protected]
Format settings, CABAC : Yes
Format settings, ReFrames : 9 frames
Codec ID : V_MPEG4/ISO/AVC
Duration : 25mn 32s
Bit rate : 2 749 Kbps
Width : 1 280 pixels
Height : 720 pixels
Display aspect ratio : 16:9
Frame rate mode : Constant
Frame rate : 23.976 fps
Color space : YUV
Chroma subsampling : 4:2:0
Bit depth : 10 bits
Scan type : Progressive
Bits/(Pixel*Frame) : 0.124
Stream size : 502 MiB (90%)
Writing library : x264 core 125 r2200 999b753
Encoding settings : cabac=1 / ref=9 / deblock=1:-2:-2 / analyse=0x3:0x133 / me=umh / subme=9 / psy=1 / psy_rd=0.90:0.00 / mixed_ref=1 / me_range=24 / chroma_me=1 / trellis=2 / 8x8dct=1 / cqm=0 / deadzone=21,11 / fast_pskip=1 / chroma_qp_offset=-2 / threads=6 / lookahead_threads=1 / sliced_threads=0 / nr=0 / decimate=0 / interlaced=0 / bluray_compat=0 / constrained_intra=0 / bframes=8 / b_pyramid=2 / b_adapt=2 / b_bias=0 / direct=1 / weightb=1 / open_gop=0 / weightp=2 / keyint=250 / keyint_min=23 / scenecut=40 / intra_refresh=0 / rc=crf / mbtree=0 / crf=15.8 / qcomp=0.70 / qpmin=9 / qpmax=40 / qpstep=4 / ip_ratio=1.40 / pb_ratio=1.30 / aq=1:0.90
Default : Yes
Forced : No
Audio
ID : 2
Format : Vorbis
Format settings, Floor : 1
Codec ID : A_VORBIS
Duration : 25mn 32s
Bit rate mode : Variable
Bit rate : 256 Kbps
Channel count : 2 channels
Sampling rate : 48.0 KHz
Compression mode : Lossy
Stream size : 46.8 MiB (8%)
Writing library : libVorbis (Schaufenugget) (20101101 (Schaufenugget))
Language : Japanese
Default : Yes
Forced : No
По просьбе GENMUTAT

Создавать темы 10-Янв-2014 07:43

[Профиль]  [ЛС] 

SvetiKKK2013

Стаж: 4 года 5 месяцев

Сообщений: 23

скажите а это аниме чисто на японском что ли? я скачала это аниме но у меня чисто на японском даж субтитров нет((

Создавать темы 14-Мар-2014 20:51

[Профиль]  [ЛС] 

Азиз87

Стаж: 5 лет 1 месяц

Сообщений: 752

Симпатии: 143

795367скажите а это аниме чисто на японском что ли? я скачала это аниме но у меня чисто на японском даж субтитров нет((
[RUS(ext), JAP+SUB] указывает что присутствует русский.

Насчет воспроизведения смотреть здесь:

  • Данный релиз предназначен для просмотра с внешними субтитрами и внешними звуковыми дорожками.
    • Для просмотра с внешней звуковой дорожкой нужно:
      скопировать файлы .mka из папки "RUS Sound [<автор(ы) озвучки>]" в одну папку с видео и переключить звуковую дорожку в плеере при просмотре. Если возникли вопросы как это сделать обращайтесь сюда https://tas-ix.net/chat.php
    • Для просмотра с субтитрами нужно:
      скопировать файлы .ass из папки "RUS Subtitles [<автор(ы) перевода>]" в одну папку с видео - плеер подгрузит их автоматически при открытии видео.

Создавать темы 14-Мар-2014 21:01

[Профиль]  [ЛС] 

DrSkippeR

Стаж: 4 года

Сообщений: 6

Пораздайте еще посерьезней !

Создавать темы 05-Фев-2015 12:05

[Профиль]  [ЛС] 
Показать сообщения:    
Ответить на тему

Текущее время: 15-Дек 15:19

Часовой пояс: UTC + 5



Вы не можете начинать темы
Вы не можете отвечать на сообщения
Вы не можете редактировать свои сообщения
Вы не можете удалять свои сообщения
Вы не можете голосовать в опросах
Вы не можете прикреплять файлы к сообщениям
Вы не можете скачивать файлы