Как научиться танцевать не выходя из дома [2009 г.]

Ответить на тему
 

bexa96 ®

Стаж: 6 лет 8 месяцев

Сообщений: 381

Симпатии: 49

Как научиться танцевать не выходя из дома- Год выпуска: 2009
Страна:Россия
Жанр: Хореография
Язык: русский
Продолжительность: 01:19:59
Автор: Олег Горячо
Описание: Этот DVD курс для новичков. Он подходит для мужчин, которые хотят НАУЧИТЬСЯ с нуля базовым основам клубного танца, не стоять на танцполе и разнообразить свои движения, а так же легко и свободно общаться в клубе.-Чему ты научишься:
• СВОБОДНО двигаться под клубную музыку
• Не будешь стесняться танцевать, даже если ты один на всем танцполе
• Узнаешь, как танцевать с девушкой на любой вечеринке и в клубе
• Выучишь простые, но ЭФФЕКТНЫЕ движения, которые подходят именно для ребят
• Узнаешь, что можно, и что нельзя делать с девушкой на танцполе
• Будешь танцевать КРАСИВО, чтобы выделяться среди основной массы парней-Что входит в DVD курс:
• Разминка — растяжка, разогрев мышц, базовые упражнения
• Базовые движения — элементарные движения, которые потом можно будет соеденить в танце
• На танцполе — то, как ты будешь двигаться под музыку. Базовые движения будут объединяться в небольшие связки.
• Горячие танцы — как танцевать с девушкой в клубе. Горячие танцы показаны на реальной девушке
-Качество: DVDRip
Формат: AVI
Видео кодек: XviD
Видео: Xvid 352x288 25fps [Video]
Аудио: MP3 44100Hz stereo 128kbps [Audio]
-

MediaInfo

General
Complete name : D:\mybook\hotdance.avi
Format : AVI
Format/Info : Audio Video Interleave
File size : 200 MiB
Duration : 1h 19mn
Overall bit rate : 350 Kbps
Writing library : VirtualDub build 32593/release
Video
ID : 0
Format : MPEG-4 Visual
Format profile : Advanced [email protected]
Format settings, BVOP : Yes
Format settings, QPel : No
Format settings, GMC : No warppoints
Format settings, Matrix : Default (H.263)
Codec ID : XVID
Codec ID/Hint : XviD
Duration : 1h 19mn
Bit rate : 212 Kbps
Width : 352 pixels
Height : 288 pixels
Display aspect ratio : 1.222
Frame rate : 25.000 fps
Standard : PAL
Color space : YUV
Chroma subsampling : 4:2:0
Bit depth : 8 bits
Scan type : Progressive
Compression mode : Lossy
Bits/(Pixel*Frame) : 0.084
Stream size : 121 MiB (61%)
Writing library : XviD 1.2.1 (UTC 2008-12-04)
Audio
ID : 1
Format : MPEG Audio
Format version : Version 1
Format profile : Layer 3
Mode : Joint stereo
Mode extension : MS Stereo
Codec ID : 55
Codec ID/Hint : MP3
Duration : 1h 19mn
Bit rate mode : Constant
Bit rate : 128 Kbps
Channel count : 2 channels
Sampling rate : 44.1 KHz
Compression mode : Lossy
Stream size : 73.2 MiB (37%)
Alignment : Split accross interleaves
Interleave, duration : 40 ms (1.00 video frame)
Interleave, preload duration : 500 ms
Writing library : LAME3.98.2

Скриншоты





Создавать темы 10-Янв-2014 11:17

[Профиль]  [ЛС] 

pirat

Стаж: 5 лет 5 месяцев

Сообщений: 216

Симпатии: 63

да чуваки, дожили...

Создавать темы 10-Янв-2014 20:44

[Профиль]  [ЛС] 

Goodfella

Стаж: 3 года 9 месяцев

Сообщений: 14

раздайте пожалуйста

Создавать темы 08-Фев-2014 00:50

[Профиль]  [ЛС] 

Phantom18

Стаж: 4 года 11 месяцев

Сообщений: 6

Раздачи плиз

Информация от nadezcda


3.9. Размещать бессмысленные сообщения, не несущие абсолютно никакой полезной информации, типа "дайте скорости", "встаньте на раздачу", "раздаю", "газу" и т.п.

Создавать темы 15-Июн-2014 01:27

[Профиль]  [ЛС] 
Показать сообщения:    
Ответить на тему

Текущее время: 22-Сен 23:55

Часовой пояс: UTC + 5



Вы не можете начинать темы
Вы не можете отвечать на сообщения
Вы не можете редактировать свои сообщения
Вы не можете удалять свои сообщения
Вы не можете голосовать в опросах
Вы не можете прикреплять файлы к сообщениям
Вы не можете скачивать файлы