Break Dance [2008г,обучающее видео,Urbans]

Ответить на тему
 

bexa96 ®

Стаж: 6 лет 9 месяцев

Сообщений: 381

Симпатии: 49

Break Dance - Год выпуска: 2008
Страна:Россия
Жанр: Хореография, обучающее видео
Язык: русский
Продолжительность: 49 минут
Автор: URBANS
Описание:Break dance (брейк данс) является одним из самых динамичных, современных и экстремальных танцевальных стилей.
Ни один другой танец, как брейк данс, так не приковывает к себе внимание людей, и это не удивительно, ведь брэйк данс так не похож на другие стили. Ни в одном другом танце, как в брейк дансе, нет столько акробатических элементов, головокружительных вращений, выпрыгиваний, зависаний и других разнообразных сложных трюков и элементов. Научиться танцевать брейк данс детям и подросткам значит всегда быть в центре внимания. Именно поэтому break-dance (брейк данс) владеет умами миллионов детей и подростков во всем мире.
-Качество: DVDRip
Формат: AVI
Видео кодек: XviD
Видео: Xvid 720x416 25fps [Video]
Аудио: Dolby AC3 48000Hz 4ch 448kbps [Audio]-

MediaInfo

General
Complete name : D:\mybook\Break Dance.avi
Format : AVI
Format/Info : Audio Video Interleave
File size : 650 MiB
Duration : 49mn 12s
Overall bit rate : 1 848 Kbps
Writing application : VirtualDubMod 1.5.4.1 (build 2178/release)
Writing library : VirtualDubMod build 2178/release
Video
ID : 0
Format : MPEG-4 Visual
Format profile : Advanced [email protected]
Format settings, BVOP : Yes
Format settings, QPel : No
Format settings, GMC : No warppoints
Format settings, Matrix : Custom
Codec ID : XVID
Codec ID/Hint : XviD
Duration : 49mn 12s
Bit rate : 1 393 Kbps
Width : 720 pixels
Height : 416 pixels
Display aspect ratio : 1.731
Frame rate : 25.000 fps
Color space : YUV
Chroma subsampling : 4:2:0
Bit depth : 8 bits
Scan type : Progressive
Compression mode : Lossy
Bits/(Pixel*Frame) : 0.186
Stream size : 490 MiB (75%)
Writing library : XviD 1.1.2 (UTC 2006-11-01)
Audio
ID : 1
Format : AC-3
Format/Info : Audio Coding 3
Mode extension : CM (complete main)
Format settings, Endianness : Big
Codec ID : 2000
Duration : 49mn 10s
Bit rate mode : Constant
Bit rate : 448 Kbps
Channel count : 4 channels
Channel positions : Front: L C R, LFE
Sampling rate : 48.0 KHz
Bit depth : 16 bits
Compression mode : Lossy
Stream size : 158 MiB (24%)
Alignment : Split accross interleaves
Interleave, duration : 96 ms (2.40 video frames)
Interleave, preload duration : 96 ms
Language : Russian

Скриншоты






Создавать темы 10-Янв-2014 17:13

[Профиль]  [ЛС] 

Razzil228

Стаж: 3 года 9 месяцев

Сообщений: 29

пожалуйста скорость дайте заранее спасибо!

Информация от nadezcda


3.9. Размещать бессмысленные сообщения, не несущие абсолютно никакой полезной информации, типа "дайте скорости", "встаньте на раздачу", "раздаю", "газу" и т.п.

Создавать темы 23-Июл-2014 09:58

[Профиль]  [ЛС] 
Показать сообщения:    
Ответить на тему

Текущее время: 23-Окт 07:41

Часовой пояс: UTC + 5



Вы не можете начинать темы
Вы не можете отвечать на сообщения
Вы не можете редактировать свои сообщения
Вы не можете удалять свои сообщения
Вы не можете голосовать в опросах
Вы не можете прикреплять файлы к сообщениям
Вы не можете скачивать файлы