[#33] Американская История Х / American History X (Тони Кей) [1998 г., Драма, HDDVDRip 1080p]

Ответить на тему
 

condor423 ®

Стаж: 3 года 10 месяцев

Сообщений: 56

Симпатии: 2

Американская История Х / American History X
Год выпуска: 1998
Страна: США
Жанр: Драма
Продолжительность: 01:59:11
Перевод: Профессиональный (многоголосый, закадровый)
Режиссер: Тони Кей
В ролях: Эдвард Нортон, Эдвард Фёрлонг, Беверли Д’Анджело, Эвери Брукс, Стэйси Кич
Описание: События фильма разворачиваются в конце 1980-х — середине 1990-х годов. Лидер местной банды скинхэдов Дерек Виньярд прочно удерживает авторитет в своем районе. Убежденный в своей правоте, он беспощадно расправляется с теми, кто имеет не белый цвет кожи. Независимость и смелость Дерека вызывают восхищение у его младшего брата Дэнни, который уже тоже сделал свой выбор. Но зверское убийство двух чернокожих парней, совершенное Дереком, разделяет дороги братьев: Дерек оказывается в тюрьме, где существует свой расклад сил, а Дэнни на свободе успешно продолжает дело брата. До тех пор, пока их пути не пересеклись вновь...
Доп. информация: В конце фильма добавлено 8 режиссерских минут
Качество: HDDVDRip 1080p
Формат: WMV
Видео кодек: Windows Media
Аудио кодек: Windows Media
Видео: Windows Media Video 9 1440x1080 (16:9) 25fps 8000kbps
Аудио: Audio: Windows Media Audio 48000Hz stereo 192kbps
Размер Файла: 6,34 Gb

Медиа Инфо

General
Complete name : American_History_X.wmv
Format : Windows Media
File size : 6.35 GiB
Duration : 1h 59mn
Overall bit rate mode : Constant
Overall bit rate : 7 620 Kbps
Maximum Overall bit rate : 8 256 Kbps
Encoded date : UTC 2012-09-02 08:19:10.658
Writing application : 6.0.6000.16386 / Windows Movie Maker
Application : Windows Movie Maker 6.0.6000.16386
Video
ID : 2
Format : VC-1
Format profile : [email protected]
Codec ID : WMV3
Codec ID/Info : Windows Media Video 9
Codec ID/Hint : WMV3
Description of the codec : Windows Media Video 9 - Professional
Duration : 1h 59mn
Bit rate mode : Constant
Bit rate : 8 000 Kbps
Width : 1 440 pixels
Height : 1 080 pixels
Display aspect ratio : 1.000
Frame rate : 25.000 fps
Bit depth : 8 bits
Scan type : Progressive
Compression mode : Lossy
Bits/(Pixel*Frame) : 0.206
Stream size : 6.66 GiB
Language : English (US)
Audio
ID : 1
Format : WMA
Format version : Version 2
Codec ID : 161
Codec ID/Info : Windows Media Audio
Description of the codec : Windows Media Audio 9.2 - 192 kbps, 48 kHz, stereo (A/V) 1-pass CBR
Duration : 1h 59mn
Bit rate mode : Constant
Bit rate : 192 Kbps
Channel(s) : 2 channels
Sampling rate : 48.0 KHz
Bit depth : 16 bits
Stream size : 164 MiB (3%)
Language : English (US)

Скриншоты



Последний раз редактировалось: condor423 (2014-01-11 23:32), всего редактировалось 8 раз(а)

Создавать темы 10-Янв-2014 22:52

[Профиль]  [ЛС] 

victor0778

Стаж: 6 лет 9 месяцев

Сообщений: 1670

Симпатии: 142

condor423,
Секунды допишите
Скриншоты по размерам залейте
МедиаИнфо выложите
Встаньте на раздачу, а то вы в личерах

Создавать темы 11-Янв-2014 00:44

[Профиль]  [ЛС] 

condor423 ®

Стаж: 3 года 10 месяцев

Сообщений: 56

Симпатии: 2

Уважаемые модераторы, проверьте плиз, вроде все исправил...

Создавать темы 11-Янв-2014 20:07

[Профиль]  [ЛС] 

Топик был перенесен из форума Зарубежное кино в форум HD-AVC

Mixer City

Создавать темы 11-Янв-2014 23:31

 

Mixer City

Стаж: 6 лет 10 месяцев

Сообщений: 754

Симпатии: 63

condor423, перенёс согласно этим правилам: Общие правила публикации и оформления раздач в разделе HD-video

Создавать темы 11-Янв-2014 23:33

[Профиль]  [ЛС] 

Agness

Стаж: 5 лет 6 месяцев

Сообщений: 208

Симпатии: 10

это чё тв 3?

Создавать темы 12-Янв-2014 08:29

[Профиль]  [ЛС] 

victor0778

Стаж: 6 лет 9 месяцев

Сообщений: 1670

Симпатии: 142

это чё тв 3?
нифига себе тв3. этот фильм входит в 250 лучших фильмов по версии IMDb и стоит там на 33 месте
 

Создавать темы 12-Янв-2014 09:31

[Профиль]  [ЛС] 

Топик был перенесен из форума HD-AVC в форум 250 лучших фильмов по версии IMDb

victor0778

Создавать темы 12-Янв-2014 09:32

 

llewellys

Стаж: 5 лет

Сообщений: 41

Симпатии: 4

Дай газу с 1 - 2 кб/с убийство. Меньше гига осталось докачать продолжу раздачу

Создавать темы 15-Июл-2014 18:53

[Профиль]  [ЛС] 

sinsanek

Стаж: 4 года 8 месяцев

Сообщений: 10

а по легче файлика нет???

Создавать темы 20-Окт-2014 09:40

[Профиль]  [ЛС] 
Показать сообщения:    
Ответить на тему

Текущее время: 21-Ноя 11:13

Часовой пояс: UTC + 5



Вы не можете начинать темы
Вы не можете отвечать на сообщения
Вы не можете редактировать свои сообщения
Вы не можете удалять свои сообщения
Вы не можете голосовать в опросах
Вы не можете прикреплять файлы к сообщениям
Вы не можете скачивать файлы