Metallica: Сквозь невозможное / Metallica: Through the Never ( Нимрод Антал ) [2013 г., мюзикл, музыка, приключения, слова | BDRip]

Страницы :  1, 2  След.

Ответить на тему
 

victor0778 ®

Стаж: 6 лет 8 месяцев

Сообщений: 1670

Симпатии: 142

Metallica: Сквозь невозможное / Metallica Through the Never-«Experience Metallica like never before» - -Год выпуска: 2013
Страны: США
Жанры: мюзикл, музыка, приключения слова
Продолжительность: 01:32:44
Перевод: Не требуется-Режиссер: Нимрод Антал-Сценарий: Нимрод Антал, Кирк Хеммет, Джеймс Хетфилд, ...
Продюсер: Шарлотта Клэй Хаггинс, Адам Эллисон, Кирк Хеммет, ...
Оператор: Дьюла Падош
Художник: Хелен Джарвис, Крис Бич, Карла Хетленд, ...
Монтаж: Джо Хатшинг-В ролях: Дэйн ДеХаан / Dane DeHaan (Trip), Джеймс Хетфилд / James Hetfield (играет самого себя), Ларс Ульрих / Lars Ulrich (играет самого себя), Кирк Хеммет / Kirk Hammett (играет самого себя), Роберт Трухильо / Robert Trujillo (играет самого себя), Кайл Томсон / Kyle Thomson (The Rider), Тоби Харгрейв / Toby Hargrave (Big Man), МакКензи Грэй / Mackenzie Gray (Tall Man)-Описание: Участник технической команды группы Metallica получает задание — привезти сумку, содержимое которой необходимо группе для выступления. Сопровождая таинственную сумку, он попадает в невероятные передряги. Картина представляет собой смесь игрового фильма и концерта.-Бюджет: $18 000 000
Сборы в США: $3 419 967
Сборы в России: $815 460
Зрители: Россия 88.5 тыс., Мексика 60.6 тыс., Украина 23.8 тыс.
Премьера (мир): 9 сентября 2013, ...
Премьера (РФ): 26 сентября 2013, «West» 3D
Рейтинг MPAA: Лицам до 17 лет обязательно присутствие взрослого-Качество: BDRip
Формат: AVI
Видео кодек: XviD
Аудио кодек: AC3
Видео: 720x304 (2.35:1), 23.976 fps, XviD, 1 610 Kbps
Аудио: AC3, 448 Kbps, 48.0 KHz, 6 ch-   -

МедиаИнфо

General
Complete name                    : Metallica.Through.the.Never.2013.avi
Format                           : AVI
Format/Info                      : Audio Video Interleave
File size                        : 1.37 GiB
Duration                         : 1h 32mn
Overall bit rate                 : 2 115 Kbps
Writing application              : VirtualDubMod 1.5.10.3 | www.virtualdub-fr.org || (build 2550/release)
Writing library                  : VirtualDubMod build 2550/release
Video
ID                               : 0
Format                           : MPEG-4 Visual
Codec ID                         : XVID
Codec ID/Hint                    : XviD
Duration                         : 47mn 11s
Bit rate                         : 1 610 Kbps
Width                            : 720 pixels
Height                           : 304 pixels
Display aspect ratio             : 2.35:1
Frame rate                       : 23.976 fps
Color space                      : YUV
Chroma subsampling               : 4:2:0
Bits/(Pixel*Frame)               : 0.307
Stream size                      : 543 MiB (39%)
Audio
ID                               : 1
Format                           : AC-3
Format/Info                      : Audio Coding 3
Codec ID                         : 2000
Duration                         : 1h 32mn
Bit rate mode                    : Constant
Bit rate                         : 448 Kbps
Channel(s)                       : 6 channels
Sampling rate                    : 48.0 KHz
Stream size                      : 151 MiB (11%)
Alignment                        : Aligned on interleaves
Interleave, duration             : 42 ms (1.00 video frame)
Interleave, preload duration     : 500 ms

Знаете ли Вы, что...

· Голландскому режиссеру Антону Корбейну предлагали возглавить проект, но он был вынужден отказаться из-за несогласованности графиков съемок с его фильмом «Особо опасен» (2013).
· В самом начале фильма парень падает со скейта. Интересен тот факт, что сам Джеймс Хетфилд не раз ломал себе руку из-за данного средства передвижения, из-за чего теперь концертный контракт содержит пункт «NO SKATEBOARDING».
· Сценарий фильма занимает всего лишь 15 страниц, и в нём почти нет диалогов

Скриншоты



Последний раз редактировалось: victor0778 (2014-01-12 18:11), всего редактировалось 1 раз

Создавать темы 11-Янв-2014 08:48

[Профиль]  [ЛС] 

Sergio_Feuerrader

Стаж: 4 года 7 месяцев

Сообщений: 52

Симпатии: 1

Вот бы в качестве...

Создавать темы 11-Янв-2014 11:02

[Профиль]  [ЛС] 

Rammstein

Стаж: 5 лет 3 месяца

Сообщений: 274

Симпатии: 68

этот фильм про группу?

Создавать темы 11-Янв-2014 11:09

[Профиль]  [ЛС] 

ustas

Стаж: 8 лет 9 месяцев

Сообщений: 53

Симпатии: 17

блюрейчик бы весь, анкатный, огромный, красивый и сочный :-)

Создавать темы 11-Янв-2014 14:37

[Профиль]  [ЛС] 

victor0778 ®

Стаж: 6 лет 8 месяцев

Сообщений: 1670

Симпатии: 142

Вот бы в качестве...
это вы про 1080 или ремукс ?

Создавать темы 11-Янв-2014 16:29

[Профиль]  [ЛС] 

Opera_House

Стаж: 3 года 9 месяцев

Сообщений: 2

а почему перевод не требуется ?

Создавать темы 11-Янв-2014 22:18

[Профиль]  [ЛС] 

victor0778 ®

Стаж: 6 лет 8 месяцев

Сообщений: 1670

Симпатии: 142

а почему перевод не требуется ?
там практически не говорят

Создавать темы 11-Янв-2014 22:20

[Профиль]  [ЛС] 

Opera_House

Стаж: 3 года 9 месяцев

Сообщений: 2

ясно

Создавать темы 11-Янв-2014 22:23

[Профиль]  [ЛС] 

PickUp

Стаж: 4 года

Сообщений: 5

охохо как они с фильмом то прогадали
Бюджет: $18 000 000
Сборы в США: $3 419 967
Сборы в России: $815 460

Создавать темы 12-Янв-2014 11:46

[Профиль]  [ЛС] 

Hagard

Стаж: 4 года 5 месяцев

Сообщений: 11

Симпатии: 1

охохо как они с фильмом то прогадали
Бюджет: $18 000 000
Сборы в США: $3 419 967
Сборы в России: $815 460
Посмотри фильм и ты поймёшь, что они на том концерте свои деньги отбили. К тому же фильм выйдет на DVD и ещё немного денег соберёт.

Создавать темы 12-Янв-2014 17:04

[Профиль]  [ЛС] 

TImYRR

Стаж: 7 лет

Сообщений: 17

Симпатии: 3

Спасибо ОГРОМНОЕ! Давно ждал!) Но со звуком что-то не то! Слышится какое-то крыхтение

Создавать темы 15-Янв-2014 19:20

[Профиль]  [ЛС] 

Taa6969

Стаж: 6 лет 3 месяца

Сообщений: 123

Симпатии: 2

фильм полный отстой! не советую!

Создавать темы 15-Янв-2014 21:15

[Профиль]  [ЛС] 

Zloy_Angel

Стаж: 3 года 11 месяцев

Сообщений: 44

Симпатии: 4

Фильм отличный! Музыка, сюжет (хоть и короткий), игра актеров (особенно главная роль)... заставляет подумать после просмотра, пофантазировать, дать свое заключение увиденному... А предмет, который был необходим группе для выступления... обычная сумка.. но с важным содержимым..что там - лично Я склоняюсь к мнению большинства фанатов группы, просмотревших этот фильм... других (своих) вариантов нет.....

Создавать темы 15-Янв-2014 21:30

[Профиль]  [ЛС] 

el briko

Стаж: 4 года 3 месяца

Сообщений: 54

Симпатии: 4

Фильм исключительно на 3D надо смотреть...кайф тот еще будет...думаю каждый фанат или ценитель творчества Метлы оценит фильм...мне лично понравился...с радостью посмотрел...

Создавать темы 24-Янв-2014 20:35

[Профиль]  [ЛС] 

Nijelmannn

Стаж: 5 лет

Сообщений: 151

Симпатии: 1

Жаль конечно что всего лишь одну песню с нового альбома влили в фильм. А по поводу того что кому-то не понравилось, то этот фильм исключительно на любителя)))

Создавать темы 24-Янв-2014 23:14

[Профиль]  [ЛС] 
Показать сообщения:    
Ответить на тему

Текущее время: 19-Окт 14:05

Часовой пояс: UTC + 5



Вы не можете начинать темы
Вы не можете отвечать на сообщения
Вы не можете редактировать свои сообщения
Вы не можете удалять свои сообщения
Вы не можете голосовать в опросах
Вы не можете прикреплять файлы к сообщениям
Вы не можете скачивать файлы