Армия проклятых / Army of the Damned (Том ДеНуччи) [2013 г., ужасы, HDRip]

Ответить на тему
 

igor1968 ®

Стаж: 5 лет 6 месяцев

Сообщений: 366

Симпатии: 197

Армия проклятых / Army of the Damned
Год выпуска: 2013
Страна:
Жанр: ужасы
Продолжительность: 01:29:13.302
Перевод: Любительский (одноголосый)Хихикающий доктор
Режиссер: Том ДеНуччи
В ролях: Тони Тодд
Майкл Берриман
Джеки Мур
Жасмин Сэнт-Клэр
Дэвид Чокачи
Джои Фатон
Мадлен Мерритт
Мария Канеллис
Салли Эрна
Ник Принсип
...
Фильм повествует о том, как съемочная группа хитового реалити-шоу следует за группой полицейских по ночному городу. Полицейские попадают в очень неприятную историю, когда они принимают вызов, придающий совершенно новое значение термину «внутренние беспорядки». Оказываясь в опасных для жизни ситуациях, они вынуждены пойти наперекор всем правилам, чтобы остаться в живых. С помощью отшельника и мелкого преступника служители закона делают все, что в их силах, чтобы служить своему народу, защитить людей и не стать солдатами «армии проклятых».- -Качество: HDRip
Формат: AVI
Видео кодек: XviD
Аудио кодек: MPEG Audio
Видео: 640x368 (1.74:1), 23.976 fps, XviD build 50 ~955 kbps avg, 0.17 bit/pixel
Аудио: 44.100 kHz, MPEG Layer 3, 2 ch, ~192.00 kbps avg-

MediaInfo

General
Complete name : Army.of.the.Damned.2014.Xixidok.avi
Format : AVI
Format/Info : Audio Video Interleave
File size : 738 MiB
Duration : 1h 29mn
Overall bit rate : 1 157 Kbps
Writing application : VirtualDubMod 1.5.10.3 (build 2550/release)
Writing library : VirtualDubMod build 2550/release
Video
ID : 0
Format : MPEG-4 Visual
Format profile : Advanced [email protected]
Format settings, BVOP : 2
Format settings, QPel : No
Format settings, GMC : No warppoints
Format settings, Matrix : Default (H.263)
Codec ID : XVID
Codec ID/Hint : XviD
Duration : 1h 29mn
Bit rate : 955 Kbps
Width : 640 pixels
Height : 368 pixels
Display aspect ratio : 1.739
Frame rate : 23.976 fps
Color space : YUV
Chroma subsampling : 4:2:0
Bit depth : 8 bits
Scan type : Progressive
Compression mode : Lossy
Bits/(Pixel*Frame) : 0.169
Stream size : 610 MiB (83%)
Writing library : XviD 1.2.1 (UTC 2008-12-04)
Audio
ID : 1
Format : MPEG Audio
Format version : Version 1
Format profile : Layer 3
Codec ID : 55
Codec ID/Hint : MP3
Duration : 1h 29mn
Bit rate mode : Constant
Bit rate : 192 Kbps
Channel(s) : 2 channels
Sampling rate : 44.1 KHz
Compression mode : Lossy
Stream size : 123 MiB (17%)
Alignment : Split accross interleaves
Interleave, duration : 42 ms (1.00 video frame)
Interleave, preload duration : 500 ms
-

Скриншоты

- - -


Последний раз редактировалось: igor1968 (2014-01-12 09:53), всего редактировалось 2 раз(а)

Создавать темы 12-Янв-2014 09:01

[Профиль]  [ЛС] 

Muhammad Ali

Стаж: 5 лет 8 месяцев

Сообщений: 22

рейтинг говорит о многом!

Создавать темы 12-Янв-2014 10:42

[Профиль]  [ЛС] 

nokia6233

Стаж: 3 года 9 месяцев

Сообщений: 2

da

Создавать темы 12-Янв-2014 20:42

[Профиль]  [ЛС] 

Alex Dancer

Стаж: 5 лет 8 месяцев

Сообщений: 181

Симпатии: 21

премьера (мир) 15 января 2014
И как он тут уже оказался???

Создавать темы 13-Янв-2014 01:15

[Профиль]  [ЛС] 
Показать сообщения:    
Ответить на тему

Текущее время: 20-Сен 10:50

Часовой пояс: UTC + 5



Вы не можете начинать темы
Вы не можете отвечать на сообщения
Вы не можете редактировать свои сообщения
Вы не можете удалять свои сообщения
Вы не можете голосовать в опросах
Вы не можете прикреплять файлы к сообщениям
Вы не можете скачивать файлы