Сумерки. Сага. Рассвет: Часть 1 / Twilight Saga: Breaking Dawn Part 1 (Билл Кондон) [2011 г., Фэнтези, драма, мелодрама, HDRip]

Ответить на тему
 

Scarpion0990 ®

Стаж: 4 года 8 месяцев

Сообщений: 66

Симпатии: 11

Сумерки. Сага. Рассвет: Часть 1 / Twilight Saga: Breaking Dawn Part 1 Год выпуска: 2011
Жанр: Фэнтези, драма, мелодрама
Продолжительность: 01:57:08
Страна: США
Язык: Английский (Ориг.)
Режиссер: Билл Кондон
В ролях: Кристен Стюарт, Роберт Паттинсон, Тейлор Лотнер, Эшли Грин, Анна Кендрик, Джексон Рэтбоун, Никки Рид, Питер Фасинелли, Келлан Латс, Элизабет Ризер и др.
Описание: В четвертой части Белла Свон оказывается перед непростым выбором — сохранить жизнь себе или своему ребенку (наполовину вампиру, наполовину человеку). Она решает оставить малыша, но Эдвард и остальные члены семьи Каллен категорически против.
Помощи Белле ждать не от кого, но она приходит неожиданно, от того, от кого её совсем не ждали. Вдвоем Белла и Розали пытаются сохранить жизнь малышу, даже не догадываясь, к каким ужасающим последствиям это приведет.
Качество: HDRip
Формат: MKV
Видео кодек: XviD
Аудио кодек: AC3
Видео: MPEG-4 Visual XviD 720x304 1,703Kbps
Аудио: Audio Coding 3 448 Kbps 48 KHz 6 channels
 

Медиа Инфо

Sumerki.saga.rassvet.chast.1.2011.D.HDRip.mkv
   General
      Unique ID : 187809460938325388077323429282546089155 (0x8D4AC955D689EB1383A0CE3340B27CC3)
      Complete name : Sumerki.saga.rassvet.chast.1.2011.D.HDRip.mkv
      Format : Matroska
      Format version : Version 4 / Version 2
      File size : 1.80 GiB
      Duration : 1h 57mn
      Overall bit rate : 2 194 Kbps
      Encoded date : UTC 2013-09-16 13:48:57
      Writing application : mkvmerge v6.2.0 ('Promised Land') built on Apr 28 2013 12:22:01
      Writing library : libebml v1.3.0 + libmatroska v1.4.0
   Video #1
      ID : 1
      Format : MPEG-4 Visual
      Format profile : Advanced [email protected]
      Format settings, BVOP : Yes
      Format settings, QPel : No
      Format settings, GMC : No warppoints
      Format settings, Matrix : Custom
      Codec ID : V_MS/VFW/FOURCC / XVID
      Codec ID/Hint : XviD
      Duration : 1h 57mn
      Bit rate : 1 703 Kbps
      Width : 720 pixels
      Height : 304 pixels
      Display aspect ratio : 2.35:1
      Frame rate mode : Constant
      Frame rate : 23.976 fps
      Color space : YUV
      Chroma subsampling : 4:2:0
      Bit depth : 8 bits
      Scan type : Progressive
      Compression mode : Lossy
      Bits/(Pixel*Frame) : 0.324
      Stream size : 1.39 GiB (78%)
      Writing library : XviD 1.2.1 (UTC 2008-12-04)
      Default : Yes
      Forced : No
   Audio #2
      ID : 2
      Format : AC-3
      Format/Info : Audio Coding 3
      Mode extension : CM (complete main)
      Format settings, Endianness : Big
      Codec ID : A_AC3
      Duration : 1h 57mn
      Bit rate mode : Constant
      Bit rate : 448 Kbps
      Channel(s) : 6 channels
      Channel positions : Front: L C R, Side: L R, LFE
      Sampling rate : 48.0 KHz
      Bit depth : 16 bits
      Compression mode : Lossy
      Stream size : 375 MiB (20%)
      Default : Yes
      Forced : No

Скриншоты





Последний раз редактировалось: Scarpion0990 (2014-01-12 13:20), всего редактировалось 5 раз(а)

Создавать темы 12-Янв-2014 12:06

[Профиль]  [ЛС] 

СтАсИкОс

Стаж: 6 лет 8 месяцев

Сообщений: 314

Симпатии: 20

Добавьте скрины
FAQ - Каким плеером можно сделать скриншот / скринлист с видео

Создавать темы 12-Янв-2014 12:21

[Профиль]  [ЛС] 

Scarpion0990 ®

Стаж: 4 года 8 месяцев

Сообщений: 66

Симпатии: 11

спасибо, но это не для мне

Создавать темы 12-Янв-2014 13:31

[Профиль]  [ЛС] 

СтАсИкОс

Стаж: 6 лет 8 месяцев

Сообщений: 314

Симпатии: 20

Scarpion0990, Ну я так, на всякий случай)

Создавать темы 12-Янв-2014 14:50

[Профиль]  [ЛС] 

Рамиль

Стаж: 7 лет 4 месяца

Сообщений: 61

Симпатии: 1

Scarpion0990 когда раздавать будешь????????????????

Создавать темы 14-Апр-2014 22:40

[Профиль]  [ЛС] 

Рамиль

Стаж: 7 лет 4 месяца

Сообщений: 61

Симпатии: 1

Вот вы раздаете!!!!!!!!!!!!!!!!!!!
Уже 2 недели качаю!!!!!!!!!
72% только!!!!!!!!

Создавать темы 26-Апр-2014 22:40

[Профиль]  [ЛС] 

panno4ka

Стаж: 4 года 8 месяцев

Сообщений: 51

Симпатии: 3

Огромное спасибо ! Качественно,здорово - такой драйф от просмотра! Хотелось бы продолжения. Искала , но не нашла. Пожалуйста найдите! Вы сможете ;) Заранее благодарна)))))))))))

Создавать темы 03-Дек-2014 15:11

[Профиль]  [ЛС] 
Показать сообщения:    
Ответить на тему

Текущее время: 20-Сен 16:07

Часовой пояс: UTC + 5



Вы не можете начинать темы
Вы не можете отвечать на сообщения
Вы не можете редактировать свои сообщения
Вы не можете удалять свои сообщения
Вы не можете голосовать в опросах
Вы не можете прикреплять файлы к сообщениям
Вы не можете скачивать файлы