Into The Mind / В глубины разума [2013, Ski, Freeride, DTS, EN] BDRip |1080p

Ответить на тему
 

maxoff ®

Стаж: 6 лет 8 месяцев

Сообщений: 15

- Год выпуска: 2013
Вид спорта: Ski, Freeride
Жанр: Sport, Documentary
Продолжительность: 01:22:45
Язык комментариев: Английский
Страна: Канада
Режиссёры: Eric Crosland, Dave Mossop
Участники: Benji Farrow, Callum Pettit, Ingrid Backstrom, Johnny Collinson, JP Auclair, Kye Petersen, Rory Bushfield, Tom Wallisch, Xavier De La Rue-Описание: Создатели фильма Into The Mind предлагают зрителям побывать в таких уголках Земли, в которых не ступала нога человека; увидеть суровую красоту дикой, нетронутой цивилизацией природы, и узнать, на что готовы пойти райдеры-участники проекта, чтобы кататься и сниматься в этих удивительных местах. Горные лыжи и сноубординг, пешие восхождения на заснеженные вершины и сплав по горным рекам, альплагеря и серфинг. Изумительные пейзажи, командные и личные достижения и невероятная работа съемочной группы. Где проходит граница между мечтой и реальностью? Есть ли предел человеческим возможностям? На эти вопросы отвечают создатели фильма Into The Mind.-Размывая границы между сном и реальностью, представьте себе этот мир одновременным взглядом с многих сторон. Into the Mind рисует философский портрет современного экстремала. Что тянет нас на приключения? Как мы справляемся с рисками? Какие силы формируют эту зависимость? Уникальные кадры райдеров из различных видов спорта и дисциплин открывают нам окно в невиданный доселе мир.Будда однажды сказал: "Разум - это основа всего. Что ты думаешь, то и происходит на самом деле."
Into The Mind - фильм про бессмертность Разума.
- -Качество: BDRip [1080p]
Формат: MKV
Видео кодек: Н.264
Аудио кодек: DTS
Видео: 1920х1080, 23.976fps, 9835 kbps
Аудио: 48000Hz, 6 channels, 1510 kbps-Трейлер на vimeo.com | Официальный сайт | КиноПоиск | IMDb-

MediaInfo

Общее
Полное имя : Into.The.Mind.2013.1080p.BluRay.x264.DTS.mkv
Формат : Matroska
Версия формата : Version 2
Размер файла : 6,56 Гбайт
Продолжительность : 1 ч. 22 м.
Общий поток : 11,3 Мбит/сек
Программа кодирования : mkvmerge v4.1.1 ('Bouncin' Back') built on Jul 3 2010 22:54:08
Библиотека кодирования : libebml v1.0.0 + libmatroska v1.0
Видео
Идентификатор : 1
Формат : AVC
Формат/Информация : Advanced Video Codec
Профиль формата : High@L4.0
Параметр CABAC формата : Да
Параметр ReFrames формата : 4 кадра
Идентификатор кодека : V_MPEG4/ISO/AVC
Продолжительность : 1 ч. 22 м.
Битрейт : 9835 Кбит/сек
Ширина : 1920 пикселей
Высота : 1080 пикселей
Соотношение сторон : 16:9
Частота кадров : 23,976 кадра/сек
Цветовое пространство : YUV
Субдискретизация насыщенности : 4:2:0
Битовая глубина : 8 бит
Тип развёртки : Прогрессивная
Бит/(Пиксели*Кадры) : 0.198
Размер потока : 5,55 Гбайт (85%)
Библиотека кодирования : x264 core 138 r2358 9e941d1
Настройки программы : cabac=1 / ref=4 / deblock=1:0:0 / analyse=0x3:0x133 / me=umh / subme=7 / psy=1 / psy_rd=1.00:0.00 / mixed_ref=1 / me_range=16 / chroma_me=1 / trellis=1 / 8x8dct=1 / cqm=0 / deadzone=21,11 / fast_pskip=0 / chroma_qp_offset=-2 / threads=18 / lookahead_threads=3 / sliced_threads=0 / nr=0 / decimate=1 / interlaced=0 / bluray_compat=0 / constrained_intra=0 / bframes=3 / b_pyramid=2 / b_adapt=2 / b_bias=0 / direct=3 / weightb=1 / open_gop=0 / weightp=2 / keyint=250 / keyint_min=23 / scenecut=40 / intra_refresh=0 / rc_lookahead=50 / rc=2pass / mbtree=1 / bitrate=9835 / ratetol=1.0 / qcomp=0.60 / qpmin=0 / qpmax=69 / qpstep=4 / cplxblur=20.0 / qblur=0.5 / ip_ratio=1.40 / aq=1:1.00
Язык : English
Аудио
Идентификатор : 2
Формат : DTS
Формат/Информация : Digital Theater Systems
Идентификатор кодека : A_DTS
Продолжительность : 1 ч. 22 м.
Вид битрейта : Постоянный
Битрейт : 1510 Кбит/сек
Каналы : 6 каналов
Расположение каналов : Front: L C R, Side: L R, LFE
Частота : 48,0 КГц
Битовая глубина : 24 бит
Метод сжатия : С потерями
Размер потока : 894 Мбайт (13%)
Язык : English
Меню
00:00:00.000 : en:00:00:00.000
00:06:58.084 : en:00:06:58.084
00:10:32.382 : en:00:10:32.382
00:15:55.371 : en:00:15:55.371
00:23:23.068 : en:00:23:23.068
00:26:19.453 : en:00:26:19.453
00:30:30.912 : en:00:30:30.912
00:35:37.010 : en:00:35:37.010
00:37:47.348 : en:00:37:47.348
00:44:15.695 : en:00:44:15.695
00:55:52.182 : en:00:55:52.182
01:01:29.936 : en:01:01:29.936
01:05:42.981 : en:01:05:42.981
01:09:22.158 : en:01:09:22.158
01:17:14.338 : en:01:17:14.338

Скриншоты

- Год выпуска: 2013
Жанр: Репортаж, документальный
Перевод: Английский
Продолжительность: 00:18:37
Описание: Режиссер постановщик Renan Ozturk отвечает на некоторые вопросы для National Geographic Adventure о съемках части Nepal Vision Quest из фильма Into the Mind.-Качество: WEBRip [720p]
Формат: mp4
Видео кодек: Н.264
Аудио кодек: AAC
Видео: 1280х720, 23.976fps, 2243 kbps
Аудио: 48000Hz, 2 channels, 147 kbps-

MediaInfo

Complete name : Nepal Vision Quest (INTO THE MIND behind the scenes).MP4
Format : MPEG-4
Format profile : Base Media / Version 2
Codec ID : mp42
File size : 319 MiB
Duration : 18mn 36s
Overall bit rate mode : Variable
Overall bit rate : 2 394 Kbps
Encoded date : UTC 2013-12-19 20:53:42
Tagged date : UTC 2013-12-19 20:53:42
Video
ID : 1
Format : AVC
Format/Info : Advanced Video Codec
Format profile : Main@L3.1
Format settings, CABAC : Yes
Format settings, ReFrames : 4 frames
Codec ID : avc1
Codec ID/Info : Advanced Video Coding
Duration : 18mn 36s
Bit rate : 2 243 Kbps
Width : 1 280 pixels
Height : 720 pixels
Display aspect ratio : 16:9
Frame rate mode : Constant
Frame rate : 23.976 fps
Color space : YUV
Chroma subsampling : 4:2:0
Bit depth : 8 bits
Scan type : Progressive
Bits/(Pixel*Frame) : 0.102
Stream size : 299 MiB (94%)
Writing library : x264 core 138 r2358 9e941d1
Encoding settings : cabac=1 / ref=1 / deblock=1:0:0 / analyse=0x1:0 / me=dia / subme=2 / psy=1 / psy_rd=1.00:0.00 / mixed_ref=0 / me_range=16 / chroma_me=1 / trellis=0 / 8x8dct=0 / cqm=0 / deadzone=21,11 / fast_pskip=1 / chroma_qp_offset=0 / threads=12 / lookahead_threads=4 / sliced_threads=0 / nr=0 / decimate=1 / interlaced=0 / bluray_compat=0 / stitchable=1 / constrained_intra=0 / bframes=3 / b_pyramid=2 / b_adapt=1 / b_bias=0 / direct=1 / weightb=1 / open_gop=0 / weightp=2 / keyint=72 / keyint_min=24 / scenecut=40 / intra_refresh=0 / rc_lookahead=40 / rc=crf / mbtree=1 / crf=20.0 / qcomp=0.60 / qpmin=5 / qpmax=69 / qpstep=4 / vbv_maxrate=3750 / vbv_bufsize=12500 / crf_max=0.0 / nal_hrd=none / ip_ratio=1.40 / aq=1:1.00
Encoded date : UTC 2013-12-19 20:53:42
Tagged date : UTC 2013-12-19 20:53:42
Color primaries : BT.709
Transfer characteristics : BT.709
Matrix coefficients : BT.709
Audio
ID : 2
Format : AAC
Format/Info : Advanced Audio Codec
Format profile : LC
Codec ID : 40
Duration : 18mn 36s
Bit rate mode : Variable
Bit rate : 147 Kbps
Channel count : 2 channels
Channel positions : Front: L R
Sampling rate : 48.0 KHz
Compression mode : Lossy
Stream size : 19.6 MiB (6%)
Encoded date : UTC 2013-12-19 20:53:42
Tagged date : UTC 2013-12-19 20:53:42

Скриншоты:

Создавать темы 12-Янв-2014 12:41

[Профиль]  [ЛС] 

Canyok

Стаж: 5 лет 6 месяцев

Сообщений: 22

зачет! спасибо! вся мировая элита в одном фильме.

Создавать темы 19-Фев-2014 22:44

[Профиль]  [ЛС] 

maxoff ®

Стаж: 6 лет 8 месяцев

Сообщений: 15

gremi, вечерком поставлю на раздачу

Создавать темы 26-Сен-2014 16:45

[Профиль]  [ЛС] 
Показать сообщения:    
Ответить на тему

Текущее время: 21-Окт 04:32

Часовой пояс: UTC + 5



Вы не можете начинать темы
Вы не можете отвечать на сообщения
Вы не можете редактировать свои сообщения
Вы не можете удалять свои сообщения
Вы не можете голосовать в опросах
Вы не можете прикреплять файлы к сообщениям
Вы не можете скачивать файлы