Битва за Чернобыль / The Battle of Chernobyl [2006 г, Документальный, DVDRip]

Ответить на тему
 

VRHeart ®

Стаж: 4 года 10 месяцев

Сообщений: 136

Симпатии: 7

Битва за Чернобыль
The Battle of Chernobyl

Год выпуска: 2006
Страна: США, Discovery Channel
Жанр: Документальный
Продолжительность: 01:32:54
Перевод: Профессиональный (многоголосый)
Русские субтитры: нет
Режиссёр: Томас Джонсон / Thomas Johnson
Описание: В специальном полуторачасовом проекте «Битва за Чернобыль» Discovery Channel собрал огромное количество никогда ранее не публиковавшихся архивных документов, уникальных фото- и видеоматериалов, и, используя компьютерную графику, шаг за шагом реконструировал события 25-летней давности. Зрители познакомятся с воспоминаниями Михаила Горбачёва и последними исследованиями экологов и генетиков, которые помогут оценить масштабы колоссального выброса радиации и его последствия. Также зрители увидят шокирующие фотографии Игоря Костина – известного украинского фотокорреспондента, отдавшего своё здоровье, чтобы донести до людей весь ужас аварии и рассказать о ней со всей убедительностью очевидца.
Качество: DVDRip
Формат: AVI
Видео кодек: DivX
Аудио кодек: МР3
Видео: DivX 5 640x384 29.97fps 1858kbps
Аудио: MPEG Audio Layer 3 48000Hz stereo 256kbps

Mediainfo

General
Complete name : G:\Discovery.Bitva.Za.Chernobyl.2006.DivX.DVDRip.avi
Format : AVI
Format/Info : Audio Video Interleave
File size : 1.38 GiB
Duration : 1h 32mn
Overall bit rate : 2 126 Kbps
Writing application : VirtualDubModRus 1.5.10.2 (build 2542/release)
Writing library : VirtualDubMod build 2542/release
Video
ID : 0
Format : MPEG-4 Visual
Format settings, BVOP : 1
Format settings, QPel : No
Format settings, GMC : No warppoints
Format settings, Matrix : Default (H.263)
Muxing mode : Packed bitstream
Codec ID : DX50
Codec ID/Hint : DivX 5
Duration : 1h 32mn
Bit rate : 1 858 Kbps
Width : 640 pixels
Height : 384 pixels
Display aspect ratio : 1.667
Frame rate : 29.970 fps
Color space : YUV
Chroma subsampling : 4:2:0
Bit depth : 8 bits
Scan type : Progressive
Compression mode : Lossy
Bits/(Pixel*Frame) : 0.252
Stream size : 1.21 GiB (87%)
Writing library : DivX 5.2.1 Beta (UTC 2004-09-08)
Audio
ID : 1
Format : MPEG Audio
Format version : Version 1
Format profile : Layer 3
Mode : Joint stereo
Codec ID : 55
Codec ID/Hint : MP3
Duration : 1h 32mn
Bit rate mode : Constant
Bit rate : 256 Kbps
Channel(s) : 2 channels
Sampling rate : 48.0 KHz
Compression mode : Lossy
Stream size : 170 MiB (12%)
Alignment : Aligned on interleaves
Interleave, duration : 33 ms (1.00 video frame)
Interleave, preload duration : 504 ms

Скриншоты

Создавать темы 12-Янв-2014 15:04

[Профиль]  [ЛС] 

aquaman

Стаж: 3 года 7 месяцев

Сообщений: 125

Симпатии: 7

Быстрее бы проверили так посмотреть хочется

Создавать темы 12-Янв-2014 15:19

[Профиль]  [ЛС] 

SLIM BOY

Стаж: 3 года 10 месяцев

Сообщений: 62

Большое спасибо. Когдато видел н0 не досмотрел

Создавать темы 12-Янв-2014 18:08

[Профиль]  [ЛС] 

VRHeart ®

Стаж: 4 года 10 месяцев

Сообщений: 136

Симпатии: 7

Мое личное мнение, в данном материале слишком мало чего сказано. Если хотите быть под впечатлением всего, рекомендую посмотреть другой материал, куда более интересней.
http://tas-ix.net/viewtopic.php?t=85617
P.S. материал 50/50 на русском/украинском языке. Присутствуют русские субтитры на украинскую речь.

Создавать темы 12-Янв-2014 23:55

[Профиль]  [ЛС] 
Показать сообщения:    
Ответить на тему

Текущее время: 21-Авг 19:08

Часовой пояс: UTC + 5



Вы не можете начинать темы
Вы не можете отвечать на сообщения
Вы не можете редактировать свои сообщения
Вы не можете удалять свои сообщения
Вы не можете голосовать в опросах
Вы не можете прикреплять файлы к сообщениям
Вы не можете скачивать файлы