Дорога на Эльдорадо / The Road to El Dorado (Бибо Бержерон, Уилл Финн, Дон Пол) [2000 г., боевик, комедия, приключения, семейный, DVDRip]

Ответить на тему
 

VAIO ®

Стаж: 5 лет 9 месяцев

Сообщений: 1568

Симпатии: 1399

Дорога на Эльдорадо / The Road to El Dorado - Год выпуска: 2000
Страна: США
Жанр: боевик, комедия, приключения, семейный
Продолжительность: 1:25:37
Перевод: Профессиональный (полное дублирование)-Режиссер: Бибо Бержерон, Уилл Финн, Дон Пол-В ролях: Кевин Кляйн, Кеннет Брана, Рози Перез, Арманд Ассанте, Эдвард Джеймс Олмос, Джим Каммингс, Фрэнк Уэлкер, Тобин Белл, Элайджа Чианг и др.-Описание: Тульо и Мигель, герои этой полнометражной мультипликационной картины, предпочитают не зарабатывать деньги тяжелым трудом. Эти два отпетых мошенника обожают, когда золотишко само идет к ним в руки. Случилось так, что этим проходимцам крупно повезло.
Им посчастливилось найти таинственную карту, на которой обозначен величественный Город Золота, мифический Эльдорадо. Вместе со знаменитым конкистадором Эрнаном Кортесом приятели отправляются в рискованное путешествием за сокровищами к берегам далекой Америки.-Доп. информация:- -Качество: DVDRip
Формат: AVI
Видео кодек: XviD
Аудио кодек: MP3
Видео: 656x368 25fps 1 144 Kbps
Аудио: 48000Hz stereo 128kbps [Stream 01]-

MediaInfo

General
Complete name : D:\Закачки\The Road to El Dorado_[Tas-ix.net]_[VAIO].avi
Format : AVI
Format/Info : Audio Video Interleave
File size : 700 MiB
Duration : 1h 25mn
Overall bit rate : 1 144 Kbps
Video
ID : 0
Format : MPEG-4 Visual
Format profile : [email protected]
Format settings, BVOP : 1
Format settings, QPel : No
Format settings, GMC : No warppoints
Format settings, Matrix : Default (MPEG)
Muxing mode : Packed bitstream
Codec ID : DIVX
Codec ID/Info : Project Mayo
Codec ID/Hint : DivX 4
Duration : 1h 25mn
Bit rate : 1 010 Kbps
Width : 656 pixels
Height : 368 pixels
Display aspect ratio : 16:9
Frame rate : 25.000 fps
Color space : YUV
Chroma subsampling : 4:2:0
Bit depth : 8 bits
Scan type : Progressive
Compression mode : Lossy
Bits/(Pixel*Frame) : 0.167
Stream size : 619 MiB (88%)
Writing library : XviD 1.0.2 (UTC 2004-08-29)
Audio
ID : 1
Format : MPEG Audio
Format version : Version 1
Format profile : Layer 3
Mode : Joint stereo
Codec ID : 55
Codec ID/Hint : MP3
Duration : 1h 25mn
Source duration : 1h 25mn
Bit rate mode : Constant
Bit rate : 128 Kbps
Channel(s) : 2 channels
Sampling rate : 48.0 KHz
Compression mode : Lossy
Stream size : 78.4 MiB (11%)
Alignment : Split accross interleaves
Interleave, duration : 200 ms (5.00 video frames)
-

Скриншоты

- -


Последний раз редактировалось: VAIO (2014-01-14 21:36), всего редактировалось 3 раз(а)

Создавать темы 13-Янв-2014 01:15

[Профиль]  [ЛС] 

richdad

Стаж: 4 года 2 месяца

Сообщений: 48

Симпатии: 7

на последнем скриншоте обнаженная сцена? как понимать? сколько лет должно быть что бы это можно было посмотреть? +18 сделайте что ли

Создавать темы 13-Янв-2014 01:17

[Профиль]  [ЛС] 

СтАсИкОс

Стаж: 6 лет 9 месяцев

Сообщений: 314

Симпатии: 20

richdad, Ничего страшного, обычная анимационно-комичная ситуация!

Создавать темы 13-Янв-2014 01:20

[Профиль]  [ЛС] 

skynet

Стаж: 5 лет 9 месяцев

Сообщений: 296

Симпатии: 6

ООО)) скачаем))

Создавать темы 13-Янв-2014 08:06

[Профиль]  [ЛС] 

Timur

Стаж: 6 лет 9 месяцев

Сообщений: 2

Спасибо, мульт классный. Моя старшая дочь до сих пор его помнит и любит. Советую всем.

Создавать темы 26-Апр-2014 21:13

[Профиль]  [ЛС] 
Показать сообщения:    
Ответить на тему

Текущее время: 22-Окт 22:09

Часовой пояс: UTC + 5



Вы не можете начинать темы
Вы не можете отвечать на сообщения
Вы не можете редактировать свои сообщения
Вы не можете удалять свои сообщения
Вы не можете голосовать в опросах
Вы не можете прикреплять файлы к сообщениям
Вы не можете скачивать файлы