Бездыханные / Breathless (Джесси Баже / Jesse Baget) [2012, США, Триллер, криминал, HDRip] VO + Sub Rus, Eng + Original Eng

Ответить на тему
 

Suxrob89 ®

Стаж: 7 лет

Сообщений: 933

Симпатии: 564

-Бездыханные / Breathless- Страна: США, Hollywood Media Bridge, Zero Gravity Management
Жанр: Триллер, криминал
Год выпуска: 2012
Продолжительность: 01:31:15
Перевод: Одноголосый закадровый (Barin101)
Cубтитры: русские (barin101), английские
Оригинальная аудиодорожка: английский-Режиссер: Джесси Баже / Jesse Baget-В ролях: Джина Гершон, Келли Гиддиш, Вэл Килмер, Рэй Лиотта, Уэйн Дювалл-Описание: Жена узнаёт, что её муж совершил ограбление банка. Ударив его сковородкой и привязав к стулу, она зовёт на помощь подругу. Вместе они допрашивают мужа, пытаясь узнать, куда он спрятал 100 000 баксов. Мужик, ясное дело, в несознанку. Тогда, увлёкшись допросом, жена случайно убивает мужа из пистолета. Несчастный случай.
Теперь дамочкам предстоит нелёгкое дело: избавиться от трупа и найти деньги. А тут, как нарочно, на пороге появляется шериф, а потом и ещё кое-кто, также претендующий на добычу...- -Качество видео: HDRip
Формат видео: AVI
Видео: Video: 720x304 (2.37:1), 23.976 fps, XviD build 73 ~1889 kbps avg, 0.36 bit/pixel
Аудио: Audio #1: 48 kHz, AC3 Dolby Digital, 2/0 (L,R) ch, ~192.00 kbps avg (RUS)
Аудио 2: Audio #1: 48 kHz, AC3 Dolby Digital, 2/0 (L,R) ch, ~192.00 kbps avg (ENG)
Формат субтитров: softsub (SRT)

MediaInfo

Общее
Полное имя : Breathless.2012.HDRip.avi
Формат : AVI
Формат/Информация : Audio Video Interleave
Размер файла : 1,46 Гбайт
Продолжительность : 1 ч. 31 м.
Общий поток : 2287 Кбит/сек
Программа кодирования : VirtualDubMod 1.5.10.3 | www.virtualdub-fr.org || (build 2550/release)
Библиотека кодирования : VirtualDubMod build 2550/release
Видео
Идентификатор : 0
Формат : MPEG-4 Visual
Профиль формата : Advanced [email protected]
Параметр BVOP формата : 1
Параметр QPel формата : Нет
Параметр GMC формата : Без точки перехода
Параметр матрицы формата : Выборочная
Идентификатор кодека : XVID
Идентификатор кодека/Подсказка : XviD
Продолжительность : 1 ч. 31 м.
Битрейт : 1889 Кбит/сек
Ширина : 720 пикс.
Высота : 304 пикс.
Соотношение сторон : 2,35:1
Частота кадров : 23,976 кадр/сек
Цветовое пространство : YUV
Подвыборка цветности : 4:2:0
Битовая глубина : 8 бит
Тип развёртки : Прогрессивная
Метод сжатия : С потерями
Бит/(Пиксели*Кадры) : 0.360
Размер потока : 1,20 Гбайт (83%)
Библиотека кодирования : XviD 73
Аудио #1
Идентификатор : 1
Формат : AC-3
Формат/Информация : Audio Coding 3
Профиль формата : Dolby Digital
Расширение режима : CM (complete main)
Идентификатор кодека : 2000
Продолжительность : 1 ч. 31 м.
Вид битрейта : Постоянный
Битрейт : 192 Кбит/сек
Канал(ы) : 2 канала(ов)
Расположение каналов : Front: L R
Частота : 48,0 КГц
Битовая глубина : 16 бит
Метод сжатия : С потерями
Размер потока : 125 Мбайт (8%)
Выравнивание : Разделение по промежуткам
Продолжительность промежутка : 42 мс. (1,00 видеокадр)
Время предзагрузки промежутка : 500 ms
Аудио #2
Идентификатор : 2
Формат : AC-3
Формат/Информация : Audio Coding 3
Расширение режима : CM (complete main)
Идентификатор кодека : 2000
Продолжительность : 1 ч. 31 м.
Вид битрейта : Постоянный
Битрейт : 192 Кбит/сек
Канал(ы) : 2 канала(ов)
Расположение каналов : Front: L R
Частота : 48,0 КГц
Битовая глубина : 16 бит
Метод сжатия : С потерями
Размер потока : 125 Мбайт (8%)
Выравнивание : Разделение по промежуткам
Продолжительность промежутка : 42 мс. (1,00 видеокадр)
Время предзагрузки промежутка : 500 ms

Скриншот с названием фильма

Скриншоты

Создавать темы 13-Янв-2014 06:51

[Профиль]  [ЛС] 

kraft2307

Стаж: 4 года 3 месяца

Сообщений: 29

А в этом фильме есть персонажи, которые хотели бы наказать преступников? bu

Создавать темы 13-Янв-2014 08:45

[Профиль]  [ЛС] 
Показать сообщения:    
Ответить на тему

Текущее время: 16-Авг 18:34

Часовой пояс: UTC + 5



Вы не можете начинать темы
Вы не можете отвечать на сообщения
Вы не можете редактировать свои сообщения
Вы не можете удалять свои сообщения
Вы не можете голосовать в опросах
Вы не можете прикреплять файлы к сообщениям
Вы не можете скачивать файлы